Welcome Guest ( Log In | Register )

> Ysengrin & Sartegos - Resvrrezionespiritval [split] (2016), Black/Doom Metal | Black/Death Metal
post Nov 8 2016, 22:35:31
Post #1

Маньяк
**********
Group: Металариец
Posts: 1,237
Releases: 950
From: Prešov
On Forums: 4 years 1 month
Thanks: 22055 time(s)
Slovakia


(IMG:http://metalarea.org/images/audiocovers/2016_Nov/acov_tid277644_thumb.jpg)

*Artist: Ysengrin & Sartegos
*Album: Resvrrezionespiritval [split]
*Year: 2016
*Genre: Black/Doom Metal | Black/Death Metal
*Country: France (IMG:http://metalarea.org/forum/style_images/flags/France.png) | Spain (IMG:http://metalarea.org/forum/style_images/flags/Spain.png)
*Format: mp3@CBR320kbps
*Size: 71MB

Tracklist:
Ysengrin:
1. Nel Candore Lvnare 06:46
2. Daemonalba 00:48
3. Solar Birth 06:58
Sartegos:
4. As Asas Do Morcego 01:07
5. Umha Dança De Estrelas Negras 06:32
6. Ele Viu as Suas Maos 07:35
******************************
Total playing time: 29:46



Extended info
I, Voidhanger Records - IVR062


Technical info
(IMG:http://metalarea.org/images/spectrogram/2016_Nov/8e6379b19151ad95c4091509445baf58.png)
Input File: 03. Ysengrin - Solar Birth.mp3
Channels : 2
Sample Rate : 44100
Precision : 16-bit
Duration : 00:06:58.10 = 18438298 samples = 31357.6 CDDA sectors
File Size : 17.0M
Bit Rate : 325k
Sample Encoding: MPEG audio (layer I, II or III)
Comments :
Title=Solar Birth
Artist=Ysengrin
Album=Resvrrezionespiritval
Tracknumber=03/06
Year=2016
Genre=Black / Doom Metal



Register


Вернуться к началу страницы
  Insert nick Quick quote
+Цитировать сообщение
 
Создать новую тему
Replies (1 - 3)
romanov
post Nov 9 2016, 06:49:34
Post #2

Guests team






Register


Вернуться к началу страницы
  Insert nick Quick quote
+Цитировать сообщение
post Mar 6 2017, 19:10:04
Post #3

Black is beautiful
***********
Group: Металариец
Posts: 1,562
Releases: 3
On Forums: 6 years 2 months
Thanks: 274 time(s)
Unknown


Sartegos is very good!
(IMG:style_emoticons/default/pray.gif)
Вернуться к началу страницы
  Insert nick Quick quote
+Цитировать сообщение
post Jan 12 2018, 21:56:27
Post #4

Литр
*
Group: Подсевший
Posts: 84
Releases: 0
On Forums: 1 year 5 days
Thanks: 91 time(s)
Bahamas


Register


Thanks:
Вернуться к началу страницы
  Insert nick Quick quote
+Цитировать сообщение

ОтветитьСоздать новую тему
2 User(s) are reading this topic (2 Guests and 0 Anonymous Users)
0 Members:

 



- Lo-Fi Version Support form
Copyrights and abuse reports form
Time is now: 24th May 2018 - 14:36:59