Welcome Guest ( Log In | Register )

> 

Здесь релизы с живыми прямыми ссылками на lossless

> Barbarian Swords - Worms (2016), Black/Sludge/Doom Metal
post Nov 10 2016, 15:43:50
Post #1

Serial Uploader
Group Icon
Group: V.I.P
Posts: 37,112
Releases: 35296
From: Lithuania
On Forums: 11 years 9 months
Thanks: 418029 time(s)
Lithuania


(IMG:http://metalarea.org/images/audiocovers/2016_Nov/acov_tid277753_thumb.jpg)

*Artist: Barbarian Swords
*Album: Worms
*Year: 2016
*Genre: Black/Sludge/Doom Metal
*Country: Spain (IMG:http://metalarea.org/forum/style_images/flags/Spain.png)
*Format: mp3@CBR320kbps
*Size: 153MB

Tracklist:
01. I'm Your Demise 08:13
02. Outcast Warlords 06:09
03. Pure Demonology 03:11
04. Christian Worms 07:30
05. Total Nihilism 07:25
06. The Last Virgin on the Earth, Sodomized 07:17
07. Carnivorous Pussy 02:22
08. Requiem 17:58
09. Ultrasado Bloodbath 10:56
******************************
Total playing time: 1:11:01

(IMG:http://metalarea.org/images/myspace.png)


(IMG:http://metalarea.org/images/youtube.png)

Technical info
(IMG:http://metalarea.org/images/spectrogram/2016_Nov/66bc9aae2bd91f1531cdc831e9dc9a46.png)
Input File: 02. Outcast Warlords.mp3
Channels : 2
Sample Rate : 44100
Precision : 16-bit
Duration : 00:06:09.10 = 16277090 samples = 27682.1 CDDA sectors
File Size : 14.9M
Bit Rate : 324k
Sample Encoding: MPEG audio (layer I, II or III)
Comments :
Title=Outcast Warlords
Artist=Barbarian Swords
Album=Worms
Tracknumber=2
Year=2016
Genre=Black/Sludge/Doom Meta
Discnumber=1



Register


Go to the top of the page
  Insert nick Quick quote
+Quote Post
 
Start new topic
Replies (1 - 4)
post May 22 2018, 01:26:47
Post #2

Маньяк
**********
Group: Металариец
Posts: 1,024
Releases: 0
From: Vinland
On Forums: 7 years 4 months
Thanks: 1207 time(s)
United States


Reupload please!
Go to the top of the page
  Insert nick Quick quote
+Quote Post
post Nov 11 2019, 11:21:03
Post #3

Group: Подсевший
Posts: 36
Releases: 0
From: France
On Forums: 2 years 7 months
Thanks: 14 time(s)
France


Someone can reupload thanx
Go to the top of the page
  Insert nick Quick quote
+Quote Post
post Nov 13 2019, 08:01:35
Post #4


Group Icon
Group: S-moderation team
Posts: 14,795
Releases: 1440
From: Zagreb
On Forums: 9 years 1 month
Thanks: 64711 time(s)
Croatia


Register


Go to the top of the page
  Insert nick Quick quote
+Quote Post
post Nov 16 2019, 19:19:46
Post #5

Group: Подсевший
Posts: 36
Releases: 0
From: France
On Forums: 2 years 7 months
Thanks: 14 time(s)
France


QUOTE(Borderline1991 @ Nov 13 2019, 08:01:35) *



Thanx !
Go to the top of the page
  Insert nick Quick quote
+Quote Post

Reply to this topicStart new topic
1 User(s) are reading this topic (1 Guests and 0 Anonymous Users)
0 Members:

 



- Lo-Fi Version Support form
Copyrights and abuse reports form
Time is now: 29th March 2020 - 22:34:25