Welcome Guest ( Log In | Register )

> Blackhour - Sins Remain (2016), Heavy Metal
post Nov 12 2016, 12:58:55
Post #1

Serial Uploader
Group Icon
Group: V.I.P
Posts: 35,408
Releases: 33620
From: Lithuania
On Forums: 11 years 1 week
Thanks: 385924 time(s)
Lithuania


(IMG:http://metalarea.org/images/audiocovers/2016_Nov/acov_tid277853_thumb.jpg)

*Artist: Blackhour
*Album: Sins Remain
*Year: 2016
*Genre: Heavy Metal
*Country: Pakistan (IMG:http://metalarea.org/forum/style_images/flags/Pakistan.png)
*Format: mp3@CBR320kbps
*Size: 81MB

Tracklist:
01. Losing Life 06:54
02. Wind Of Change 05:33
03. Life Brings Death, Love Brings Misery 09:01
04. Battle Cry 05:18
05. Sins Remain 08:23
******************************
Total playing time: 35:09

(IMG:http://metalarea.org/images/myspace.png)





Technical info
(IMG:http://metalarea.org/images/spectrogram/2016_Nov/072daf9ee18a5bcd9dc452bb0b265d4b.png)
Input File: 02. Wind of Change.mp3
Channels : 2
Sample Rate : 44100
Precision : 16-bit
Duration : 00:05:33.62 = 14712554 samples = 25021.4 CDDA sectors
File Size : 13.6M
Bit Rate : 326k
Sample Encoding: MPEG audio (layer I, II or III)
Comments :
Title=Wind of Change
Artist=Blackhour
Album=Sins Remain
Tracknumber=2
Year=2016
Genre=Heavy Metal



Register


Go to the top of the page
  Insert nick Quick quote
+Quote Post
 
Start new topic
Replies (1 - 3)
post Nov 12 2016, 16:03:07
Post #2

Thrash, Beer & Violence
**************
Group: Металариец
Posts: 5,503
Releases: 2772
From: Крестов Брод (Russland)
On Forums: 11 years 8 months
Thanks: 39966 time(s)
Russian Federation




Thanks:
Go to the top of the page
  Insert nick Quick quote
+Quote Post
post Jun 12 2019, 14:57:26
Post #3

Group: Подсевший
Posts: 21
Releases: 0
From: Мy House
On Forums: 1 week 1 day
Thanks: 0 time(s)
Spain


ссылки не работают
Go to the top of the page
  Insert nick Quick quote
+Quote Post
post Jun 12 2019, 19:19:35
Post #4


Group Icon
Group: S-moderation team
Posts: 10,812
Releases: 1438
From: Zagreb
On Forums: 8 years 3 months
Thanks: 46567 time(s)
Croatia


Register


Thanks:
(1) jonatjan,
Go to the top of the page
  Insert nick Quick quote
+Quote Post

Reply to this topicStart new topic
1 User(s) are reading this topic (1 Guests and 0 Anonymous Users)
0 Members:

 



- Lo-Fi Version Support form
Copyrights and abuse reports form
Time is now: 16th June 2019 - 07:30:51