Welcome Guest ( Log In | Register )

> Within Hate - Chains Of The Night (2016), Heavy Metal
post Nov 16 2016, 13:05:58
Post #1

Serial Uploader
Group Icon
Group: V.I.P
Posts: 37,124
Releases: 35308
From: Lithuania
On Forums: 11 years 11 months
Thanks: 419303 time(s)
Lithuania


(IMG:https://metalarea.org/images/audiocovers/2016_Nov/acov_tid278077_thumb.jpg)

*Artist: Within Hate
*Album: Chains Of The Night
*Year: 2016
*Genre: Heavy Metal
*Country: Denmark (IMG:https://metalarea.org/forum/style_images/flags/Denmark.png)
*Format: mp3@CBR320kbps
*Size: 99MB

Tracklist:
01. Insanity Kicks In 02:26
02. Where Did My Life Go 04:17
03. Human Abomination 04:53
04. Waiting For A Miracle 05:31
05. Set My Mind Free 03:52
06. Chains Of The Night 04:00
07. Born Of Fire 05:23
08. Another World 04:11
09. Last Night Is Missing 04:14
10. Castles In My Mind 03:38
******************************
Total playing time: 42:25



Technical info
(IMG:https://metalarea.org/images/spectrogram/2016_Nov/3e861ff6608a1cc80266da16cac6afea.png)
Input File: 02. Where did my life go.mp3
Channels : 2
Sample Rate : 44100
Precision : 16-bit
Duration : 00:04:17.88 = 11372420 samples = 19340.9 CDDA sectors
File Size : 10.5M
Bit Rate : 325k
Sample Encoding: MPEG audio (layer I, II or III)
Comments :
Title=Where did my life go
Artist=Within Hate
Album=Chains of the night
Tracknumber=2
Year=2016



Register


Go to the top of the page
  Insert nick Quick quote
+Quote Post
 
Start new topic
Replies (1 - 2)
post Nov 16 2016, 15:16:01
Post #2

Мегаманьяк
***********
Group: Металариец
Posts: 1,780
Releases: 0
On Forums: 7 years 6 months
Thanks: 2630 time(s)
Russian Federation


Альтернативная ссылка
Register


Thanks:
Go to the top of the page
  Insert nick Quick quote
+Quote Post
post Nov 16 2016, 17:11:18
Post #3

hearer & reader
**************
Group: Металариец
Posts: 8,695
Releases: 140
From: Moscow
On Forums: 12 years 8 months
Thanks: 8724 time(s)
Russian Federation


"We're oldskool" (IMG:style_emoticons/default/smile1.gif)
Второй альбом в этом году. Другая музыка. Всё страньше и страньше...
Go to the top of the page
  Insert nick Quick quote
+Quote Post

Reply to this topicStart new topic
1 User(s) are reading this topic (1 Guests and 0 Anonymous Users)
0 Members:

 



- Lo-Fi Version Support form
Copyrights and abuse reports form
Time is now: 29th May 2020 - 23:27:26