Welcome Guest ( Log In | Register )

> Eternal Alchemist - Demon Summoning (2016), Black Metal
post Nov 19 2016, 19:28:41
Post #1

Маньяк
**********
Group: Металариец
Posts: 1,429
Releases: 1114
From: Prešov
On Forums: 4 years 7 months
Thanks: 26189 time(s)
Slovakia


(IMG:http://metalarea.org/images/audiocovers/2016_Nov/acov_tid278300_thumb.jpg)

*Artist: Eternal Alchemist
*Album: Demon Summoning
*Year: 2016
*Genre: Black Metal
*Country: Germany (IMG:http://metalarea.org/forum/style_images/flags/Germany.png)
*Format: mp3@CBR320kbps
*Size: 119MB

Tracklist:
1. Death over Europe pt.1 05:26
2. The Great Manipulator 05:00
3. Demon Summoning 06:02
4. A Secret Flame Inside 03:35
5. Prophets of the Black Shrine 06:11
6. Blood Cathedral 03:47
7. Underground Manifest 04:29
8. Traveler's Key 05:01
9. Death over Europe pt.2 05:58
10. Empire of Suffering (Sargeist Cover) 04:37
******************************
Total playing time: 50:14



Technical info
(IMG:http://metalarea.org/images/spectrogram/2016_Nov/207294a4beeb5ec5d4f6530a9da375a7.png)
Input File: 02. The Great Manipulator.mp3
Channels : 2
Sample Rate : 44100
Precision : 16-bit
Duration : 00:05:00.46 = 13250374 samples = 22534.6 CDDA sectors
File Size : 12.2M
Bit Rate : 324k
Sample Encoding: MPEG audio (layer I, II or III)
Comments :
Title=The Great Manipulator
Artist=Eternal Alchemist
Album=Demon Summoning
Tracknumber=02/10
Year=2016
Genre=Black Metal



Register


Go to the top of the page
  Insert nick Quick quote
+Quote Post
 
Start new topic
Replies (1 - 7)
post Nov 19 2016, 20:07:13
Post #2

filed under desecration
Group Icon
Group: S-moderation team
Posts: 8,674
Releases: 1643
On Forums: 10 years 3 months
Thanks: 99108 time(s)
Unknown


Зеркало -
Register


Go to the top of the page
  Insert nick Quick quote
+Quote Post
post Nov 19 2016, 20:27:41
Post #3

::
**************
Group: Металариец
Posts: 2,288
Releases: 3
From: Воронеж
On Forums: 8 years 6 months
Thanks: 1002 time(s)
Russian Federation


Ура, качество!


Thanks:
(1) Olguard,
Go to the top of the page
  Insert nick Quick quote
+Quote Post
post Nov 19 2016, 20:55:38
Post #4

I hate you all
***********
Group: Металариец
Posts: 1,819
Releases: 74
From: Ukraine
On Forums: 11 years 6 months
Thanks: 4660 time(s)
Ukraine


Отменный релиз !!!
Go to the top of the page
  Insert nick Quick quote
+Quote Post
post Nov 20 2016, 06:45:51
Post #5

Аннигилятор пивА
Group Icon
Group: V.I.P
Posts: 50,265
Releases: 15596
From: Koenigsberg - TILZIT
On Forums: 12 years 5 months
Thanks: 338904 time(s)
Russian Federation


ЦИТАТА(V1nterch @ Nov 19 2016, 19:27:41) *
Ура, качество!

(IMG:style_emoticons/default/crazy.gif) на бендкампе можно скачать свободно в любом формате без денюшек


Thanks:
Go to the top of the page
  Insert nick Quick quote
+Quote Post
post Nov 20 2016, 10:41:00
Post #6

Necromancer
Group Icon
Group: Curation team
Posts: 10,741
Releases: 271
From: Зеленоград
On Forums: 12 years 1 month
Thanks: 8636 time(s)
Russian Federation


Очень хороший альбом. Особенно хочется отметить атмосферную составляющую, которая весьма толково и уместно вплетена в чёрную и злобную музыку. Супер! Советую, не проходить мимо этого релиза. (IMG:style_emoticons/default/true_black.gif)
Go to the top of the page
  Insert nick Quick quote
+Quote Post
post Mar 25 2017, 10:49:11
Post #7

Black is beautiful
***********
Group: Металариец
Posts: 1,643
Releases: 4
On Forums: 6 years 8 months
Thanks: 304 time(s)
Unknown


Wonderful - perfect Back-Metal-Guitars, super vocals.
(IMG:style_emoticons/default/true_black.gif) (IMG:style_emoticons/default/true_black.gif)
Go to the top of the page
  Insert nick Quick quote
+Quote Post
post Jul 11 2018, 16:47:55
Post #8

Правь статус, ####!111
**************
Group: Металариец
Posts: 2,473
Releases: 12
On Forums: 11 years 3 months
Thanks: 1375 time(s)
Russian Federation


Просто превосходный релиз. Заимел давеча дигипак.
Go to the top of the page
  Insert nick Quick quote
+Quote Post

Reply to this topicStart new topic
1 User(s) are reading this topic (1 Guests and 0 Anonymous Users)
0 Members:

 



- Lo-Fi Version Support form
Copyrights and abuse reports form
Time is now: 15th November 2018 - 02:41:11