Welcome Guest ( Log In | Register )

> Convulsing - Errata (2016), Blackened Death Metal
post Nov 26 2016, 20:31:21
Post #1

Маньяк
**********
Group: Металариец
Posts: 1,020
Releases: 373
On Forums: 9 years 3 weeks
Thanks: 8512 time(s)
Eritrea


(IMG:http://metalarea.org/images/audiocovers/2016_Nov/acov_tid278738_thumb.jpg)

*Artist: Convulsing
*Album: Errata
*Year: 2016
*Genre: Blackened Death Metal
*Country: Australia (IMG:http://metalarea.org/forum/style_images/flags/Australia.png)
*Format: mp3@CBR320kbps
*Size: 119MB

Tracklist:
1.Descend Beneath 06:07
2.Altered 05:06
3.Severed Hemispheres 04:55
4.Dis 07:00
5.Eleven Sigils 05:33
6.Invocat 05:37
7.The Sky Moves Sideways 06:42
8.Dragged 07:23
******************************
Total playing time: 48:23



Extended info
Released November 26, 2016
Brendan Sloan - All instruments, vocals, drum programming. Recorded, mixed and mastered by Brendan in "Norway".

"The Sky Moves Sideways" originally written and performed by Steven Wilson / Porcupine Tree. All other music by Brendan Sloan.


Technical info
(IMG:http://metalarea.org/images/spectrogram/2016_Nov/9969e62ad057cadb6c7c6fcca16756e5.png)
Input File: 01 Descend Beneath Cut.mp3
Channels : 2
Sample Rate : 44100
Precision : 16-bit
Duration : 00:02:30.09 = 6618837 samples = 11256.5 CDDA sectors
File Size : 6.00M
Bit Rate : 320k
Sample Encoding: MPEG audio (layer I, II or III)



Register


Go to the top of the page
  Insert nick Quick quote
+Quote Post
 
Start new topic
Replies (1 - 5)
post Nov 27 2016, 12:17:32
Post #2

Let's Go Ducks!
**************
Group: Металариец
Posts: 2,313
Releases: 10
From: Khazad-dûm
On Forums: 11 years 10 months
Thanks: 1089 time(s)
Ukraine


Неплохо, как для одного человека.


Thanks:
(1) DarkHorde,
Go to the top of the page
  Insert nick Quick quote
+Quote Post
post Nov 27 2016, 13:26:10
Post #3

\m/
Group Icon
Group: S-moderation team
Posts: 7,709
Releases: 19
From: Петропавловск-Камчатский
On Forums: 10 years 6 months
Thanks: 7309 time(s)
Russian Federation


Согласен, для одного человека весьма талантливо. Не могу сказать что это BDM, ближе к блэку с примесью дэта, и атмосферным антуражем. Качественная работа, стоит ознакомиться.
Go to the top of the page
  Insert nick Quick quote
+Quote Post
post Apr 25 2017, 14:12:59
Post #4

Правь статус, ####!111
**************
Group: Металариец
Posts: 3,683
Releases: 11
From: Москва и МО
On Forums: 13 years 5 months
Thanks: 970 time(s)
Russian Federation


Довольно добротная замена Ulcerate, когда последних переслушал на миллион разков. Особенно сильно аналогии прослеживаются в медленных кусках, и замедления тут просто шикарные, надо сказать. После них часто следуют зубодробильные части, которые также шикарны. А вот между ними порой не особо шикарные куски не-пойми-чего. И концовка показалась смазанной.
Возможно, надо еще наслушивать. Пока что альбом показался разрозненным, впечатления варьируются от "ничего себе" до "что, уже альбом закончился? а где крутизна?"
Как для one-man-band-а так и вовсе шедевр!
Go to the top of the page
  Insert nick Quick quote
+Quote Post
post Apr 30 2017, 11:11:33
Post #5

sycamore trees
**************
Group: Металариец
Posts: 3,187
Releases: 0
On Forums: 3 years 10 months
Thanks: 1934 time(s)
Unknown


техникал почему не указан, отличнейший материал, молодец дядька.
Go to the top of the page
  Insert nick Quick quote
+Quote Post
post Feb 5 2018, 17:26:06
Post #6

Quaerite Lux in Tenebris
**************
Group: Металариец
Posts: 2,139
Releases: 38
From: Micsődőllő
On Forums: 9 years 4 months
Thanks: 3972 time(s)
Unknown


Линк из сети / те же параметры:
Register


Go to the top of the page
  Insert nick Quick quote
+Quote Post

Reply to this topicStart new topic
1 User(s) are reading this topic (1 Guests and 0 Anonymous Users)
0 Members:

 



- Lo-Fi Version Support form
Copyrights and abuse reports form
Time is now: 12th December 2019 - 14:22:17