Welcome Guest ( Log In | Register )

> Six Pack Of Doom - Angel's Fall [ep] (2014), Thrash Metal
post Nov 27 2016, 11:10:43
Post #1

_ - = # Thrashogolic # = - _ ... а давайте поржём все вместе
**************
Group: Металариец
Posts: 21,095
Releases: 4443
From: 404
On Forums: 11 years 7 months
Thanks: 28132 time(s)
Ukraine


(IMG:http://metalarea.org/images/audiocovers/2016_Nov/acov_tid278761_thumb.jpg)

*Artist: Six Pack Of Doom
*Album: Angel's Fall [ep]
*Year: 2014
*Genre: Thrash Metal
*Country: United States (IMG:http://metalarea.org/forum/style_images/flags/United%20States.png)
*Format: mp3@CBR320kbps
*Size: 38MB

Tracklist:
1. Planet Hurt 05:43
2. Killuminati 03:06
3. The Prophet 03:05
4. Angels Fall 04:13
******************************
Total playing time: 16:07

SixPackOfDoom.com



Technical info
(IMG:http://metalarea.org/images/spectrogram/2016_Nov/b43dd4ae7137b4f5843c4d8b62caed96.png)
Input File: 02 - Killuminati.mp3
Channels : 2
Sample Rate : 44100
Precision : 16-bit
Duration : 00:03:06.43 = 8221563 samples = 13982.2 CDDA sectors
File Size : 7.46M
Bit Rate : 320k
Sample Encoding: MPEG audio (layer I, II or III)
Comments :
Title=Killuminati
Artist=SixPack Of Doom (USA)
Album=Angels Fall (EP)
Tracknumber=2
Year=2014



Register


Go to the top of the page
  Insert nick Quick quote
+Quote Post
 
Start new topic
Replies (1 - 4)
post Nov 27 2016, 19:52:40
Post #2

_ - = # Thrashogolic # = - _ ... а давайте поржём все вместе
**************
Group: Металариец
Posts: 21,095
Releases: 4443
From: 404
On Forums: 11 years 7 months
Thanks: 28132 time(s)
Ukraine


Достаточно серьёзная, техничная работа, но я постеснялся в теги Technical прописывать. (IMG:style_emoticons/default/smile4.gif)

(IMG:http://metalarea.org/images/audiocovers/2016_Nov/acov_uid94243_ba386154b12a1c2e8ba3f8d207ce91d4.jpg)
Go to the top of the page
  Insert nick Quick quote
+Quote Post
post Aug 15 2021, 06:49:48    Сейчас играет: Re-up please ;-)
Post #3

Маньяк
**********
Group: Металариец
Posts: 1,409
Releases: 0
From: Sofia
On Forums: 14 years 3 months
Thanks: 48 time(s)
Bulgaria


Please re-up (IMG:style_emoticons/default/pray.gif) (IMG:style_emoticons/default/pray.gif)
Go to the top of the page
  Insert nick Quick quote
+Quote Post
post Sep 1 2021, 22:58:45
Post #4

Правь статус, ####!111
**************
Group: Металариец
Posts: 2,795
Releases: 0
On Forums: 6 years 8 months
Thanks: 3686 time(s)
Russian Federation


mirror
Register


Thanks:
Go to the top of the page
  Insert nick Quick quote
+Quote Post
post Sep 2 2021, 06:14:49
Post #5

Маньяк
**********
Group: Металариец
Posts: 1,409
Releases: 0
From: Sofia
On Forums: 14 years 3 months
Thanks: 48 time(s)
Bulgaria


Thank you very much, my metal brother ! (IMG:style_emoticons/default/9.gif) (IMG:style_emoticons/default/9.gif)

QUOTE(METALHUNTER @ Sep 1 2021, 21:58:45) *
mirror

Go to the top of the page
  Insert nick Quick quote
+Quote Post

Reply to this topicStart new topic
2 User(s) are reading this topic (2 Guests and 0 Anonymous Users)
0 Members:

 



- Lo-Fi Version Support form
Copyrights and abuse reports form
Time is now: 24th January 2022 - 14:29:41