Welcome Guest ( Log In | Register )

> No More Fear - Malamente (2016), Progressive/Melodic Death Metal
post Dec 2 2016, 07:33:22
Post #1

Аннигилятор пивА
Group Icon
Group: V.I.P
Posts: 50,265
Releases: 15590
From: Koenigsberg - TILZIT
On Forums: 12 years 5 months
Thanks: 338828 time(s)
Russian Federation


(IMG:https://metalarea.org/images/audiocovers/2016_Dec/acov_tid279096_thumb.jpg)

*Artist: No More Fear
*Album: Malamente
*Year: 2016
*Genre: Progressive/Melodic Death Metal
*Country: Italy (IMG:https://metalarea.org/forum/style_images/flags/Italy.png)
*Format: mp3@CBR320kbps
*Size: 63MB

Tracklist:
01. Morte E Orazione
02. Mare Mortum
03. The Boss Letter
04. A Sinister Murder Case
05. Lady 'ndrangheta
06. Tre Cavalieri
07. Conferimento Della Santa
******************************
Total playing time: 26:10



Extended info
красавцы
Kemio Nero - Vocals (1997-present)
Massimo Peluso Guitars (1998-present) See also: XII, ex-Hungry Heroes
Montos - Guitars (2001-present), Vocals (backing) (2001-present) See also: ex-Seventh Prophecy, ex-Sin Driven Tide
Fahd Lafrikh - Bass (2007-present) See also: ex-Sin Driven Tide
Marco Cardone - Drums (2015-present) See also: Silentree, ex-Evil Machine


Technical info
(IMG:https://metalarea.org/images/spectrogram/2016_Dec/793b09eb10f2653f01d4610f476b26af.png)
Input File: 05 - Lady Ndrangheta.mp3
Channels : 2
Sample Rate : 44100
Precision : 16-bit
Duration : 00:04:02.10 = 10676566 samples = 18157.4 CDDA sectors
File Size : 9.76M
Bit Rate : 322k
Sample Encoding: MPEG audio (layer I, II or III)
Comments :
Title=Lady Ndrangheta
Artist=No More Fear
Album=Malamente
Tracknumber=5/7
Year=2016



Register


Go to the top of the page
  Insert nick Quick quote
+Quote Post
 
Start new topic
Replies (1 - 1)
post Jul 12 2018, 07:35:57
Post #2

Group: Подсевший
Posts: 10
Releases: 0
On Forums: 9 years 6 months
Thanks: 0 time(s)
Russian Federation


перезалейте плиз! (IMG:style_emoticons/default/pray.gif)
Go to the top of the page
  Insert nick Quick quote
+Quote Post

Reply to this topicStart new topic
1 User(s) are reading this topic (1 Guests and 0 Anonymous Users)
0 Members:

 



- Lo-Fi Version Support form
Copyrights and abuse reports form
Time is now: 14th November 2018 - 14:01:46