Welcome Guest ( Log In | Register )

> Nuclear Monarch - Eternal Walk [ep] (2016), Progressive Death/Doom Metal
post Dec 2 2016, 10:55:53
Post #1

Аннигилятор пивА
Group Icon
Group: V.I.P
Posts: 46,692
Releases: 14016
From: Koenigsberg - TILZIT
On Forums: 11 years 11 months
Thanks: 310881 time(s)
Russian Federation


(IMG:https://metalarea.org/images/audiocovers/2016_Dec/acov_tid279106_thumb.jpg)

*Artist: Nuclear Monarch
*Album: Eternal Walk [ep]
*Year: 2016
*Genre: Progressive Death/Doom Metal
*Country: Estonia (IMG:https://metalarea.org/forum/style_images/flags/Estonia.png)
*Format: mp3@CBR320kbps
*Size: 72MB

Tracklist:
1. The Eternal Walk 05:52
2. Time Trap 04:58
3. Counter Thunder of the Past Conqueror 06:34
4. Fall Flat Success 05:02
5. Stories From No One 07:29
******************************
Total playing time: 29:55




Extended info
Death/Doom Metal music with heavy and massive riffs, various slow and fast melodies, with a bit of industrialized use of keyboards and low death metal vocals.

Anton - Vocals
Marko - Guitar
Magnus - Guitar
Jaak - Bass
Karl - Keyboards
Mehis - Drums




Technical info
(IMG:https://metalarea.org/images/spectrogram/2016_Dec/5fc827f53469fb9d364ee74b100f39a6.png)
Input File: Nuclear Monarch - Eternal Walk - 02 Time Trap.mp3
Channels : 2
Sample Rate : 44100
Precision : 16-bit
Duration : 00:04:58.25 = 13152605 samples = 22368.4 CDDA sectors
File Size : 12.0M
Bit Rate : 322k
Sample Encoding: MPEG audio (layer I, II or III)
Comments :
Title=Time Trap
Artist=Nuclear Monarch
Album=Eternal Walk
Tracknumber=2
Year=2016



Register


Вернуться к началу страницы
  Insert nick Quick quote
+Цитировать сообщение
 
Создать новую тему
Replies (1 - 3)
post Dec 2 2016, 18:42:55
Post #2

Going home. Flying high.
**************
Group: Металариец
Posts: 12,132
Releases: 0
From: The Land of Shadows
On Forums: 11 years 9 months
Thanks: 16616 time(s)
Russian Federation


и снова Эстония радует толковыми проектами)
Вернуться к началу страницы
  Insert nick Quick quote
+Цитировать сообщение
post Dec 2 2016, 20:19:35
Post #3

Победитель судьбы
**************
Group: Металариец
Posts: 4,955
Releases: 0
From: Страны Мамонтов
On Forums: 11 years 3 months
Thanks: 1690 time(s)
Antarctica


Медленно, но верно...


Thanks:
Вернуться к началу страницы
  Insert nick Quick quote
+Цитировать сообщение
post Feb 14 2018, 21:57:01
Post #4

antithesis
**************
Group: Металариец
Posts: 2,130
Releases: 27
From: VRN
On Forums: 8 years 1 day
Thanks: 1113 time(s)
Russian Federation


reuploaded
Register


Вернуться к началу страницы
  Insert nick Quick quote
+Цитировать сообщение

ОтветитьСоздать новую тему
1 User(s) are reading this topic (1 Guests and 0 Anonymous Users)
0 Members:

 



- Lo-Fi Version Support form
Copyrights and abuse reports form
Time is now: 25th May 2018 - 02:01:12