Welcome Guest ( Log In | Register )

> Nuclear Monarch - Eternal Walk [ep] (2016), Progressive Death/Doom Metal
post Dec 2 2016, 10:55:53
Post #1

Аннигилятор пивА
Group Icon
Group: V.I.P
Posts: 46,783
Releases: 14048
From: Koenigsberg - TILZIT
On Forums: 12 years 2 weeks
Thanks: 311817 time(s)
Russian Federation


(IMG:https://metalarea.org/images/audiocovers/2016_Dec/acov_tid279106_thumb.jpg)

*Artist: Nuclear Monarch
*Album: Eternal Walk [ep]
*Year: 2016
*Genre: Progressive Death/Doom Metal
*Country: Estonia (IMG:https://metalarea.org/forum/style_images/flags/Estonia.png)
*Format: mp3@CBR320kbps
*Size: 72MB

Tracklist:
1. The Eternal Walk 05:52
2. Time Trap 04:58
3. Counter Thunder of the Past Conqueror 06:34
4. Fall Flat Success 05:02
5. Stories From No One 07:29
******************************
Total playing time: 29:55




Extended info
Death/Doom Metal music with heavy and massive riffs, various slow and fast melodies, with a bit of industrialized use of keyboards and low death metal vocals.

Anton - Vocals
Marko - Guitar
Magnus - Guitar
Jaak - Bass
Karl - Keyboards
Mehis - Drums




Technical info
(IMG:https://metalarea.org/images/spectrogram/2016_Dec/5fc827f53469fb9d364ee74b100f39a6.png)
Input File: Nuclear Monarch - Eternal Walk - 02 Time Trap.mp3
Channels : 2
Sample Rate : 44100
Precision : 16-bit
Duration : 00:04:58.25 = 13152605 samples = 22368.4 CDDA sectors
File Size : 12.0M
Bit Rate : 322k
Sample Encoding: MPEG audio (layer I, II or III)
Comments :
Title=Time Trap
Artist=Nuclear Monarch
Album=Eternal Walk
Tracknumber=2
Year=2016



Register


Go to the top of the page
  Insert nick Quick quote
+Quote Post
 
Start new topic
Replies (1 - 3)
post Dec 2 2016, 18:42:55
Post #2

Going home. Flying high.
**************
Group: Металариец
Posts: 12,199
Releases: 0
From: The Land of Shadows
On Forums: 11 years 10 months
Thanks: 16775 time(s)
Russian Federation


и снова Эстония радует толковыми проектами)
Go to the top of the page
  Insert nick Quick quote
+Quote Post
post Dec 2 2016, 20:19:35
Post #3

Победитель судьбы
**************
Group: Металариец
Posts: 4,989
Releases: 0
From: Страны Мамонтов
On Forums: 11 years 3 months
Thanks: 1696 time(s)
Antarctica


Медленно, но верно...


Thanks:
Go to the top of the page
  Insert nick Quick quote
+Quote Post
post Feb 14 2018, 21:57:01
Post #4

antithesis
**************
Group: Металариец
Posts: 2,168
Releases: 27
From: VRN
On Forums: 8 years 3 weeks
Thanks: 1126 time(s)
Russian Federation


reuploaded
Register


Go to the top of the page
  Insert nick Quick quote
+Quote Post

Reply to this topicStart new topic
2 User(s) are reading this topic (2 Guests and 0 Anonymous Users)
0 Members:

 



- Lo-Fi Version Support form
Copyrights and abuse reports form
Time is now: 18th June 2018 - 19:51:43