Welcome Guest ( Log In | Register )

> Malleus - Storm Of Witchcraft [ep] (2016), Black/Heavy Metal (D8)
post Dec 3 2016, 18:35:02
Post #1

Маньяк
**********
Group: Металариец
Posts: 1,355
Releases: 1053
From: Prešov
On Forums: 4 years 4 months
Thanks: 24228 time(s)
Slovakia


(IMG:http://metalarea.org/images/audiocovers/2016_Dec/acov_tid279212_thumb.jpg)

*Artist: Malleus
*Album: Storm Of Witchcraft [ep]
*Year: 2016
*Genre: Black/Heavy Metal
*Country: United States (IMG:http://metalarea.org/forum/style_images/flags/United%20States.png)
*Format: mp3@CBR320kbps
*Size: 84MB

Tracklist:
1. Winds of Wrath / Ire 07:35
2. Blackened Skies 07:06
3. Demonology I 05:56
4. Demonology II 02:45
5. The Wolf 03:23
6. Act of Faith 04:19
7. Storm of Witchcraft 04:55
******************************
Total playing time: 35:59



Technical info
(IMG:http://metalarea.org/images/spectrogram/2016_Dec/e3cb7647699b2f5604ec73cffd878890.png)
Input File: 02. Blackened Skies.mp3
Channels : 2
Sample Rate : 44100
Precision : 16-bit
Duration : 00:07:06.38 = 18803534 samples = 31978.8 CDDA sectors
File Size : 17.1M
Bit Rate : 321k
Sample Encoding: MPEG audio (layer I, II or III)
Comments :
Title=Blackened Skies
Artist=Malleus
Album=Storm of Witchcraft
Tracknumber=02/07
Year=2016
Genre=Black Metal



Register


Go to the top of the page
  Insert nick Quick quote
+Quote Post
 
Start new topic
Replies (1 - 8)
post Dec 3 2016, 19:55:28
Post #2

filed under desecration
Group Icon
Group: S-moderation team
Posts: 8,674
Releases: 1643
On Forums: 10 years 1 week
Thanks: 98518 time(s)
Unknown


Register


Go to the top of the page
  Insert nick Quick quote
+Quote Post
post Dec 3 2016, 22:36:01
Post #3

Самый Тихий Час
**************
Group: Металариец
Posts: 5,553
Releases: 0
On Forums: 8 years 9 months
Thanks: 2402 time(s)
Unknown


Жаль не португальцы.
Go to the top of the page
  Insert nick Quick quote
+Quote Post
post Apr 19 2017, 09:34:55
Post #4

Два Литра
**
Group: Завсегдатай
Posts: 175
Releases: 0
On Forums: 9 years 2 months
Thanks: 18 time(s)
Ukraine


MERRIMACK2 а что не плохо для фэнов HELLHAMMER
Go to the top of the page
  Insert nick Quick quote
+Quote Post
post Nov 9 2017, 20:10:45
Post #5

Group: Дух
Posts: 5
Releases: 0
On Forums: 9 months 1 week
Thanks: 0 time(s)
United States


Malleus now has shirts and CD's up on our bandcamp page. Vinyl is delayed at the plant but more details to follow.



(IMG:https://i.imgur.com/54uCoP0.jpg)
Go to the top of the page
  Insert nick Quick quote
+Quote Post
post Jan 8 2018, 18:09:35
Post #6

Group: Дух
Posts: 5
Releases: 0
On Forums: 9 months 1 week
Thanks: 0 time(s)
United States


Preorder for the vinyl edition of "Storm of Witchcraft" is now available through Blood Harvest Records.



T-Shirts and CD's still available directly through the band.


Go to the top of the page
  Insert nick Quick quote
+Quote Post
post Feb 7 2018, 19:52:05
Post #7

Group: Дух
Posts: 5
Releases: 0
On Forums: 9 months 1 week
Thanks: 0 time(s)
United States


The vinyl edition of Malleus - “Storm of Witchcraft” is NOW AVAILABLE directly from the band through our bandcamp page. We will have copies available for sale at the upcoming show supporting Morbosidad and Blaspherian on Feb. 18th.



(IMG:https://i.imgur.com/FXgAOJX.jpg)

(IMG:https://i.imgur.com/ZORjyYz.jpg)
Go to the top of the page
  Insert nick Quick quote
+Quote Post
post Apr 2 2018, 18:22:25
Post #8

Group: Дух
Posts: 5
Releases: 0
On Forums: 9 months 1 week
Thanks: 0 time(s)
United States


PROPAGANDA

(IMG:http://i67.tinypic.com/15wdlcp.jpg)
Go to the top of the page
  Insert nick Quick quote
+Quote Post
post Apr 16 2018, 17:37:57
Post #9

Group: Дух
Posts: 5
Releases: 0
On Forums: 9 months 1 week
Thanks: 0 time(s)
United States


FRIDAY MAY 18TH 8PM, $12, SWORDS CHAINS LEATHER

NATUR
Heavy Metal of HELL!!! (Brooklyn)

OCCULT BURIAL
Canadian Speed Metal Terrorists!!! (Canada)

BLACKRAT
Black Thrash Attackers from the North (Canada)

MALLEUS
Evil Metal of Speed! (Boston)

(IMG:http://i66.tinypic.com/1z49xco.jpg)
Go to the top of the page
  Insert nick Quick quote
+Quote Post

Reply to this topicStart new topic
2 User(s) are reading this topic (2 Guests and 0 Anonymous Users)
0 Members:

 



- Lo-Fi Version Support form
Copyrights and abuse reports form
Time is now: 22nd August 2018 - 06:24:10