Welcome Guest ( Log In | Register )

> Black Rock - The Mighty Sacrifice (2015), Heavy/Black/Speed Metal
post Dec 6 2016, 17:33:35
Post #1

Serial Uploader
Group Icon
Group: V.I.P
Posts: 38,932
Releases: 37068
From: Lithuania
On Forums: 14 years 3 months
Thanks: 463013 time(s)
Lithuania


(IMG:http://metalarea.org/images/audiocovers/2016_Dec/acov_tid279370_thumb.jpg)

*Artist: Black Rock
*Album: The Mighty Sacrifice
*Year: 2015
*Genre: Heavy/Black/Speed Metal
*Country: Finland (IMG:http://metalarea.org/forum/style_images/flags/Finland.png)
*Format: mp3@CBR320kbps
*Size: 102MB

Tracklist:
01. The Mighty Sacrifice 03:34
02. The All-Seeing 04:27
03. The Phantom Sailor 03:44
04. We Hide Under Ground 03:50
05. Knights of the Old 03:25
06. Fall from the Sky 06:15
07. Cave Dwellers 03:34
08. Ancient Wisdom 03:57
09. The Storm 02:38
10. Black Rock 02:59
******************************
Total playing time: 38:23




Technical info
(IMG:http://metalarea.org/images/spectrogram/2016_Dec/db0553957d223754ba170a2f6a45b387.png)
Input File: 02. The All-Seeing.mp3
Channels : 2
Sample Rate : 44100
Precision : 16-bit
Duration : 00:04:27.70 = 11805746 samples = 20077.8 CDDA sectors
File Size : 10.9M
Bit Rate : 325k
Sample Encoding: MPEG audio (layer I, II or III)
Comments :
Title=The All-Seeing
Artist=Black Rock
Album=The Mighty Sacrifice
Tracknumber=2
Year=2015
Genre=Black/Heavy Metal



Register


Go to the top of the page
  Insert nick Quick quote
+Quote Post
 
Start new topic
Replies (1 - 1)
post Oct 28 2017, 07:44:00
Post #2

Правь статус, ####!111
Group Icon
Group: S-moderation team
Posts: 22,058
Releases: 1443
On Forums: 11 years 6 months
Thanks: 112910 time(s)
Unknown


Register


Thanks:
Go to the top of the page
  Insert nick Quick quote
+Quote Post

Reply to this topicStart new topic
1 User(s) are reading this topic (1 Guests and 0 Anonymous Users)
0 Members:

 



- Lo-Fi Version Support form
Copyrights and abuse reports form
Time is now: 25th September 2022 - 08:47:04