Welcome Guest ( Log In | Register )

> Mordant - Demonic Satanic (2016), Black/Thrash Metal
post Dec 8 2016, 13:16:17
Post #1

Serial Uploader
Group Icon
Group: V.I.P
Posts: 37,112
Releases: 35296
From: Lithuania
On Forums: 11 years 11 months
Thanks: 419032 time(s)
Lithuania


(IMG:http://metalarea.org/images/audiocovers/2016_Dec/acov_tid279465_thumb.jpg)

*Artist: Mordant
*Album: Demonic Satanic
*Year: 2016
*Genre: Black/Thrash Metal
*Country: Sweden (IMG:http://metalarea.org/forum/style_images/flags/Sweden.png)
*Format: mp3@CBR320kbps
*Size: 73MB

Tracklist:
01. Vengeance from the Dark
02. Devastating Storm... Evil Holocaust
03. Demonic Satanic
04. Evil Impalers
05. Blacking Metal (Sabbat cover)
06. Desecration from Hell
07. Infernal Curse of Evil
08. Screaming Souls
09. Count Lucifer
******************************
Total playing time: 31:22

(IMG:http://metalarea.org/images/myspace.png)


Technical info
(IMG:http://metalarea.org/images/spectrogram/2016_Dec/e9819a7d15d9d1edbdd47504bf7dfdf4.png)
Input File: 02. Devastating Storm...Evil Holocaust.mp3
Channels : 2
Sample Rate : 44100
Precision : 16-bit
Duration : 00:03:01.99 = 8025583 samples = 13649 CDDA sectors
File Size : 7.56M
Bit Rate : 332k
Sample Encoding: MPEG audio (layer I, II or III)
Comments :
Title=Devastating Storm...Evil Holocaust
Artist=Mordant
Album=Demonic Satanic
Tracknumber=2
Year=2016
Discnumber=1/1



Register


Go to the top of the page
  Insert nick Quick quote
+Quote Post
 
Start new topic
Replies (1 - 5)
post Dec 8 2016, 13:31:25
Post #2

\m/
Group Icon
Group: S-moderation team
Posts: 7,787
Releases: 19
From: Петропавловск-Камчатский
On Forums: 10 years 11 months
Thanks: 7590 time(s)
Russian Federation




Thanks:
Go to the top of the page
  Insert nick Quick quote
+Quote Post
post Dec 8 2016, 20:11:52
Post #3

Crush The Enemies
**************
Group: Металариец
Posts: 4,287
Releases: 0
From: Moscow
On Forums: 10 years 8 months
Thanks: 2620 time(s)
Russian Federation



Ну если судить по выше выложенной трубе - то Блэк/Трэш чистой воды,дэта и в помине нет...


Thanks:
Go to the top of the page
  Insert nick Quick quote
+Quote Post
post Dec 9 2016, 10:14:36
Post #4

Шесть Литров
******
Group: Металариец
Posts: 528
Releases: 11
On Forums: 12 years 8 months
Thanks: 214 time(s)
Unknown


логотип как у Sarcofago, надо послушать)
Go to the top of the page
  Insert nick Quick quote
+Quote Post
post Dec 10 2016, 14:25:46
Post #5

\m/
Group Icon
Group: S-moderation team
Posts: 7,787
Releases: 19
From: Петропавловск-Камчатский
On Forums: 10 years 11 months
Thanks: 7590 time(s)
Russian Federation


Первая песня здорово риффингом (1:20) напоминает поздний Deceased, начало второй песни - группу Death и её первый альбом.
Альбом хорош, драйвовый.
Go to the top of the page
  Insert nick Quick quote
+Quote Post
post May 23 2020, 00:40:07
Post #6

Мегаманьяк
***********
Group: Металариец
Posts: 1,644
Releases: 1
From: ecuador
On Forums: 11 years 10 months
Thanks: 1007 time(s)
Ecuador


Register
Go to the top of the page
  Insert nick Quick quote
+Quote Post

Reply to this topicStart new topic
2 User(s) are reading this topic (2 Guests and 0 Anonymous Users)
0 Members:

 



- Lo-Fi Version Support form
Copyrights and abuse reports form
Time is now: 25th May 2020 - 02:12:46