Welcome Guest ( Log In | Register )

> Existence Failed - Putrefaction Of This Modern Time (2016), Melodic Death Metal/Metalcore
post Dec 10 2016, 08:23:52
Post #1

Serial Uploader
Group Icon
Group: V.I.P
Posts: 37,112
Releases: 35296
From: Lithuania
On Forums: 11 years 9 months
Thanks: 418010 time(s)
Lithuania


(IMG:http://metalarea.org/images/audiocovers/2016_Dec/acov_tid279601_thumb.jpg)

*Artist: Existence Failed
*Album: Putrefaction Of This Modern Time
*Year: 2016
*Genre: Melodic Death Metal/Metalcore
*Country: Germany (IMG:http://metalarea.org/forum/style_images/flags/Germany.png)
*Format: mp3@CBR320kbps
*Size: 105MB

Tracklist:
01. I.A.N.D.
02. Come Back Stronger
03. Existence Failed
04. Echoes
05. Schattenlicht
06. Empathy
07. Lass Es Gehen
08. Asche
09. Break New Ground
10. Exploited By Confidence
11. My Infection
******************************
Total playing time: 43:27


(IMG:http://metalarea.org/images/myspace.png)

Technical info
(IMG:http://metalarea.org/images/spectrogram/2016_Dec/5509273bdddf5a940676cf77aff303d9.png)
Input File: 02. Come Back Stronger.mp3
Channels : 2
Sample Rate : 44100
Precision : 16-bit
Duration : 00:03:52.62 = 10258498 samples = 17446.4 CDDA sectors
File Size : 9.80M
Bit Rate : 337k
Sample Encoding: MPEG audio (layer I, II or III)
Comments :
Title=Come Back Stronger
Artist=Existence Failed
Album=Putrefaction of this modern time
Tracknumber=2/11
Year=2016



Register


Go to the top of the page
  Insert nick Quick quote
+Quote Post
 
Start new topic
Replies (1 - 4)
post Dec 10 2016, 10:45:36
Post #2

Восемь Литров
********
Group: Металариец
Posts: 825
Releases: 0
From: Черкассы
On Forums: 8 years 3 months
Thanks: 118 time(s)
Ukraine


Очень интересный Modern MDM



Thanks:
Go to the top of the page
  Insert nick Quick quote
+Quote Post
post Dec 10 2016, 11:45:53
Post #3

Волк без яблока
**************
Group: Металариец
Posts: 13,437
Releases: 108
From: Санкт-Петербург
On Forums: 13 years 6 months
Thanks: 15482 time(s)
Russian Federation


Блин, так и писали бы, что модерн, а то мимо металкора я прошёл по привычке, ибо в Германии любит такие кирпичи наворачивать.


Thanks:
Go to the top of the page
  Insert nick Quick quote
+Quote Post
post Dec 10 2016, 23:43:45
Post #4

Литр
*
Group: Подсевший
Posts: 65
Releases: 0
From: Kazakhstan
On Forums: 11 years 1 month
Thanks: 19 time(s)
Kazakhstan


Пора бы уже запретить выкладывать музыку на этот долбаный русфолдер! (IMG:style_emoticons/default/mad_ani.gif)


Thanks:
(1) dedho,
Go to the top of the page
  Insert nick Quick quote
+Quote Post
post Dec 16 2016, 14:00:41
Post #5

Ъ
**************
Group: Металариец
Posts: 9,995
Releases: 9
On Forums: 11 years 2 months
Thanks: 1982 time(s)
Sweden


Превью скучное, вокалы донные - третьесорт.
Go to the top of the page
  Insert nick Quick quote
+Quote Post

Reply to this topicStart new topic
2 User(s) are reading this topic (2 Guests and 0 Anonymous Users)
0 Members:

 



- Lo-Fi Version Support form
Copyrights and abuse reports form
Time is now: 28th March 2020 - 18:07:26