Welcome Guest ( Log In | Register )

> Body Void - Ruins (2016), Blackened Sludge/Doom Metal
post Dec 10 2016, 16:55:28
Post #1

Аннигилятор пивА
Group Icon
Group: V.I.P
Posts: 46,692
Releases: 14016
From: Koenigsberg - TILZIT
On Forums: 11 years 11 months
Thanks: 310894 time(s)
Russian Federation


(IMG:https://metalarea.org/images/audiocovers/2016_Dec/acov_tid279621_thumb.jpg)

*Artist: Body Void
*Album: Ruins
*Year: 2016
*Genre: Blackened Sludge/Doom Metal
*Country: United States (IMG:https://metalarea.org/forum/style_images/flags/United%20States.png)
*Format: mp3@CBR320kbps
*Size: 91MB

Tracklist:
1. Swan 06:35
2. Erased 06:47
3. Monolith 09:40
4. Ruins 16:17
******************************
Total playing time: 39:19



Technical info
(IMG:https://metalarea.org/images/spectrogram/2016_Dec/6c5de14591faf195a57e004d351af31b.png)
Input File: 1. Swan.mp3
Channels : 2
Sample Rate : 44100
Precision : 16-bit
Duration : 00:06:35.08 = 17422940 samples = 29630.9 CDDA sectors
File Size : 16.0M
Bit Rate : 323k
Sample Encoding: MPEG audio (layer I, II or III)
Comments :
Title=Swan
Artist=Body Void
Album=Ruins
Tracknumber=1/4
Year=2016



Register


Вернуться к началу страницы
  Insert nick Quick quote
+Цитировать сообщение
 
Создать новую тему
Replies (1 - 1)
post Jan 13 2018, 08:53:11
Post #2

Going home. Flying high.
**************
Group: Металариец
Posts: 12,132
Releases: 0
From: The Land of Shadows
On Forums: 11 years 9 months
Thanks: 16627 time(s)
Russian Federation


from web
Register


Thanks:
(1) Doooomed,
Вернуться к началу страницы
  Insert nick Quick quote
+Цитировать сообщение

ОтветитьСоздать новую тему
1 User(s) are reading this topic (1 Guests and 0 Anonymous Users)
0 Members:

 



- Lo-Fi Version Support form
Copyrights and abuse reports form
Time is now: 25th May 2018 - 23:14:14