Welcome Guest ( Log In | Register )

> Grafvitnir - NâHásh (2012), Black Metal
post Dec 11 2016, 17:45:01
Post #1

Мегаманьяк
***********
Group: Металариец
Posts: 1,851
Releases: 1467
From: Prešov
On Forums: 5 years 8 months
Thanks: 35920 time(s)
Slovakia


(IMG:http://metalarea.org/images/audiocovers/2017_Jan/acov_uid146177_bb74f53b8753377334d112f61b995bda_thumb.jpg)

*Artist: Grafvitnir
*Album: NâHásh
*Year: 2012
*Genre: Black Metal
*Country: Sweden (IMG:http://metalarea.org/forum/style_images/flags/Sweden.png)
*Format: mp3@CBR320kbps
*Size: 116MB

Tracklist:
1. Summoning of the Serpent 00:41
2. Shadowed Portal to the Left Light 05:21
3. Vilddjurets återkomst 07:34
4. Luciferian Flame 09:40
5. Beyond the Black Veil of Da'at 10:19
6. Vastness of Death 03:56
7. Sphere of the Acausal 10:11
******************************
Total playing time: 47:42

Technical info
(IMG:http://metalarea.org/images/spectrogram/2017_Jan/c2b787ae786e978c4d2695bb3967d1e1.png)
Input File: 02. Shadowed Portal To The Left Light.mp3
Channels : 2
Sample Rate : 44100
Precision : 16-bit
Duration : 00:05:21.50 = 14177974 samples = 24112.2 CDDA sectors
File Size : 13.0M
Bit Rate : 324k
Sample Encoding: MPEG audio (layer I, II or III)
Comments :
Title=Shadowed Portal To The Left Light
Artist=Grafvitnir
Album=NГўHГЎsh
Tracknumber=02/07
Year=2012
Genre=Black Metal



Register


Go to the top of the page
  Insert nick Quick quote
+Quote Post
 
Start new topic
Replies (1 - 6)
post Dec 11 2016, 18:52:56
Post #2

Два Литра
**
Group: Завсегдатай
Posts: 110
Releases: 10
On Forums: 11 years 8 months
Thanks: 155 time(s)
Ukraine


https://youtu.be/nMziWR5z0sQ
Go to the top of the page
  Insert nick Quick quote
+Quote Post
post Dec 11 2016, 19:03:25
Post #3

Group: Подсевший
Posts: 41
Releases: 0
From: Орёл
On Forums: 8 years 9 months
Thanks: 3 time(s)
Unknown


благодарствую-автору
Go to the top of the page
  Insert nick Quick quote
+Quote Post
post Dec 12 2016, 06:48:24
Post #4

Sempiternus Necromant
**********
Group: Металариец
Posts: 1,030
Releases: 4
From: Сибирь - Алтайский Край
On Forums: 9 years 11 months
Thanks: 346 time(s)
Russian Federation


Вот это я понимаю, искусство тьмы. (IMG:style_emoticons/default/true_black.gif) Нравится его творчество.


Thanks:
Go to the top of the page
  Insert nick Quick quote
+Quote Post
post Feb 9 2017, 19:36:59
Post #5

Правь статус, ####!111
**************
Group: Металариец
Posts: 6,629
Releases: 0
From: Москва
On Forums: 10 years 4 months
Thanks: 13353 time(s)
Russian Federation


Register
320


Go to the top of the page
  Insert nick Quick quote
+Quote Post
post Feb 10 2017, 13:00:32
Post #6

I will kill you
**************
Group: Металариец
Posts: 3,027
Releases: 0
From: Moscow
On Forums: 13 years 5 months
Thanks: 6954 time(s)
Russian Federation


Speil in 320
Register


Go to the top of the page
  Insert nick Quick quote
+Quote Post
post Feb 19 2017, 18:50:38
Post #7

ретроград
**************
Group: Металариец
Posts: 4,942
Releases: 182
On Forums: 12 years 5 months
Thanks: 7313 time(s)
Vatican City


Звук такой, как-будто песок в уши сыпят...
к названию стиля смело можно "мелодик" приписать...
Go to the top of the page
  Insert nick Quick quote
+Quote Post

Reply to this topicStart new topic
2 User(s) are reading this topic (2 Guests and 0 Anonymous Users)
0 Members:

 



- Lo-Fi Version Support form
Copyrights and abuse reports form
Time is now: 14th December 2019 - 11:59:39