Welcome Guest ( Log In | Register )

> Humbaba - Possessed By Visions/The Ritual [ep] (2014), Stoner Doom Metal/Psychedelic Rock
post Dec 12 2016, 12:48:00
Post #1

Мегаманьяк
***********
Group: Металариец
Posts: 1,610
Releases: 120
From: Omsk, Siberia
On Forums: 9 years 7 months
Thanks: 2598 time(s)
Russian Federation


(IMG:https://metalarea.org/images/audiocovers/2016_Dec/acov_tid279683_thumb.jpg)

*Artist: Humbaba
*Album: Possessed By Visions/The Ritual [ep]
*Year: 2014
*Genre: Stoner Doom Metal/Psychedelic Rock
*Country: Turkey (IMG:https://metalarea.org/forum/style_images/flags/Turkey.png)
*Format: mp3@CBR320kbps
*Size: 38MB

Tracklist:
1. Possessed By Visions 07:28
2. The Ritual 08:48
******************************
Total playing time: 16:17




Extended info
Humbaba is:
Emre Can Serteli - vocals (Brain Xcavator)
Ege Çaldemir - guitars (Uluru)
Kıvılcım Çilingir - bass
Yavuz Sürmeli - drums (Perpetual Genocide, ex-Distopia, ex-Nihil Kaos)

Influences:
Black Sabbath, Electric Wizard, Sleep, Queens of the Stone Age, Kyuss


Technical info
(IMG:https://metalarea.org/images/spectrogram/2016_Dec/48a91ff9e642bed01df7d3fdfc0ce34a.png)
Input File: 01 Possessed by Visions.mp3
Channels : 2
Sample Rate : 44100
Precision : 16-bit
Duration : 00:07:28.67 = 19786435 samples = 33650.4 CDDA sectors
File Size : 18.1M
Bit Rate : 324k
Sample Encoding: MPEG audio (layer I, II or III)
Comments :
Title=Possessed by Visions
Artist=Humbaba
Album=Possessed by Visions / The Ritual
Tracknumber=1
Year=2014
Genre=Stoner



Register


Go to the top of the page
  Insert nick Quick quote
+Quote Post
 
Start new topic
Replies (1 - 1)
post Jul 13 2018, 08:08:24
Post #2

Мегаманьяк
***********
Group: Металариец
Posts: 1,610
Releases: 120
From: Omsk, Siberia
On Forums: 9 years 7 months
Thanks: 2598 time(s)
Russian Federation


newer links (320):
Register
Go to the top of the page
  Insert nick Quick quote
+Quote Post

Reply to this topicStart new topic
1 User(s) are reading this topic (1 Guests and 0 Anonymous Users)
0 Members:

 



- Lo-Fi Version Support form
Copyrights and abuse reports form
Time is now: 23rd October 2018 - 11:10:58