Welcome Guest ( Log In | Register )

> Jarnvidr & Grafvölluðr - Av Germanskt Blod [split] (2016), Black Metal | Black Metal
post Dec 14 2016, 18:23:06
Post #1

Правь статус, ####!111
**************
Group: Металариец
Posts: 2,360
Releases: 1906
From: Praha
On Forums: 7 years 6 months
Thanks: 50813 time(s)
Czech Republic


(IMG:http://metalarea.org/images/audiocovers/2016_Dec/acov_tid279828_thumb.jpg)

*Artist: Jarnvidr & Grafvölluðr
*Album: Av Germanskt Blod [split]
*Year: 2016
*Genre: Black Metal | Black Metal
*Country: Sweden (IMG:http://metalarea.org/forum/style_images/flags/Sweden.png) | United States (IMG:http://metalarea.org/forum/style_images/flags/United%20States.png)
*Format: mp3@CBR320kbps
*Size: 100MB

Tracklist:
Jarnvidr:
1. Gruvkonst 02:36
2. Einsatzkommando 04:14
3. Innebrända Irrläror 07:19
4. För Blodsutgjutelse och Krig 05:23
5. Bortom Horisontens Hamnar 03:10
Grafvölluðr:
6. IV 11:41
7. V 08:26
******************************
Total playing time: 42:49

Extended info
Darker than Black Records - DTB 261
Vinyl-rip


Technical info
(IMG:http://metalarea.org/images/spectrogram/2016_Dec/c9508cc31bca12f1c09b8cba2539b2d8.png)
Input File: 07. Grafv?llu?r - V.mp3
Channels : 2
Sample Rate : 48000
Precision : 16-bit
Duration : 00:08:26.02 = 24288912 samples ~ 37951.4 CDDA sectors
File Size : 20.5M
Bit Rate : 324k
Sample Encoding: MPEG audio (layer I, II or III)
Comments :
Title=V
Artist=Grafvölluðr
Album=Av Germanskt Blod
Tracknumber=07/07
Year=2016
Genre=Black Metal



Register


Go to the top of the page
  Insert nick Quick quote
+Quote Post
 
Start new topic
Replies (1 - 4)
post Feb 28 2017, 09:03:09
Post #2

Маньяк
**********
Group: Металариец
Posts: 1,024
Releases: 0
From: Vinland
On Forums: 8 years 11 months
Thanks: 1232 time(s)
United States


Reupload please!
Go to the top of the page
  Insert nick Quick quote
+Quote Post
post Feb 28 2017, 09:11:18
Post #3

Правь статус, ####!111
Group Icon
Group: S-moderation team
Posts: 22,017
Releases: 1443
On Forums: 10 years 8 months
Thanks: 103864 time(s)
Unknown


Register


Go to the top of the page
  Insert nick Quick quote
+Quote Post
post Mar 17 2018, 11:16:38
Post #4

Правь статус, ####!111
**************
Group: Металариец
Posts: 2,716
Releases: 12
On Forums: 14 years 2 months
Thanks: 1566 time(s)
Russian Federation


Отличный стафф. Есть на ЛП.
Go to the top of the page
  Insert nick Quick quote
+Quote Post
post Mar 17 2018, 12:50:19
Post #5

Black Metal Terrorist
*********
Group: Металариец
Posts: 920
Releases: 1
On Forums: 8 years 7 months
Thanks: 404 time(s)
Russian Federation


ЦИТАТА(Qliphoth @ Mar 17 2018, 15:16:38) *
Отличный стафф. Есть на ЛП.

присылай мне на оцифровку)))
Go to the top of the page
  Insert nick Quick quote
+Quote Post

Reply to this topicStart new topic
1 User(s) are reading this topic (1 Guests and 0 Anonymous Users)
0 Members:

 



- Lo-Fi Version Support form
Copyrights and abuse reports form
Time is now: 28th October 2021 - 21:08:44