Welcome Guest ( Log In | Register )

> Chambre Froide - Rouges Chapelles (2016), Raw Black Metal
post Dec 14 2016, 19:39:53
Post #1

Мегаманьяк
***********
Group: Металариец
Posts: 1,801
Releases: 1425
From: Prešov
On Forums: 5 years 6 months
Thanks: 34610 time(s)
Slovakia


(IMG:http://metalarea.org/images/audiocovers/2016_Dec/acov_tid279835_thumb.jpg)

*Artist: Chambre Froide
*Album: Rouges Chapelles
*Year: 2016
*Genre: Raw Black Metal
*Country: France (IMG:http://metalarea.org/forum/style_images/flags/France.png)
*Format: mp3@CBR320kbps
*Size: 76MB

Tracklist:
1. L'Opprobre 05:54
2. Sans Lumière 04:49
3. Pilori. Fange. Meurtre. 05:15
4. Cicatrices 04:50
5. Les Enfants De Baal 06:22
6. Rouges Chapelles 05:46
******************************
Total playing time: 32:56

Extended info
Tape-rip


Technical info
(IMG:http://metalarea.org/images/spectrogram/2016_Dec/465fa6143c1d796ab98614cb9ba5165c.png)
Input File: 04. Cicatrices.mp3
Channels : 2
Sample Rate : 48000
Precision : 16-bit
Duration : 00:04:50.83 = 13960080 samples ~ 21812.6 CDDA sectors
File Size : 11.7M
Bit Rate : 323k
Sample Encoding: MPEG audio (layer I, II or III)
Comments :
Title=Cicatrices
Artist=Chambre Froide
Album=Rouges Chapelles
Tracknumber=04/06
Year=2016
Genre=Raw Black Metal



Register


Go to the top of the page
  Insert nick Quick quote
+Quote Post
 
Start new topic
Replies (1 - 6)
post Dec 14 2016, 20:26:13
Post #2

the faceless one
Group Icon
Group: S-moderation team
Posts: 9,231
Releases: 1886
On Forums: 11 years 2 months
Thanks: 111270 time(s)
Russian Federation


Прямой линк -
Register


Go to the top of the page
  Insert nick Quick quote
+Quote Post
post Dec 15 2016, 08:54:33
Post #3

Пять Литров
*****
Group: Металариец
Posts: 448
Releases: 20
From: Подольск
On Forums: 10 years 4 months
Thanks: 560 time(s)
Russian Federation


для ознакомления: первые три трека этой демки
Go to the top of the page
  Insert nick Quick quote
+Quote Post
post Mar 1 2017, 20:12:15
Post #4

Group: Дух
Posts: 4
Releases: 0
On Forums: 5 years 8 months
Thanks: 0 time(s)
United States


Any chance someone can re-up?
Go to the top of the page
  Insert nick Quick quote
+Quote Post
post Mar 3 2017, 18:54:00
Post #5

Satan Soldier
**************
Group: Металариец
Posts: 2,240
Releases: 604
From: IN HELL
On Forums: 6 years 8 months
Thanks: 13852 time(s)
France


Register


Go to the top of the page
  Insert nick Quick quote
+Quote Post
post Mar 6 2017, 01:07:13
Post #6

Group: Дух
Posts: 4
Releases: 0
On Forums: 5 years 8 months
Thanks: 0 time(s)
United States


Thank you!
Go to the top of the page
  Insert nick Quick quote
+Quote Post
post Jun 12 2019, 21:47:29
Post #7

Absorbence
***********
Group: Металариец
Posts: 1,689
Releases: 215
From: Vastland Abyss of Cthulhu
On Forums: 12 years 11 months
Thanks: 3714 time(s)
Canada


nice release, love the sound (IMG:style_emoticons/default/20.gif) (IMG:style_emoticons/default/20.gif)
Go to the top of the page
  Insert nick Quick quote
+Quote Post

Reply to this topicStart new topic
1 User(s) are reading this topic (1 Guests and 0 Anonymous Users)
0 Members:

 



- Lo-Fi Version Support form
Copyrights and abuse reports form
Time is now: 13th October 2019 - 23:41:21