Welcome Guest ( Log In | Register )

> Isengard - Traditional Doom Cult [ep] (2016), Traditional Doom Metal
post Dec 19 2016, 12:45:35
Post #1

Мегаманьяк
***********
Group: Металариец
Posts: 1,981
Releases: 1612
From: Saratov
On Forums: 13 years 3 weeks
Thanks: 57820 time(s)
Russian Federation


(IMG:https://metalarea.org/images/audiocovers/2016_Dec/acov_tid280085_thumb.jpg)

*Artist: Isengard
*Album: Traditional Doom Cult [ep]
*Year: 2016
*Genre: Traditional Doom Metal
*Country: Norway (IMG:https://metalarea.org/forum/style_images/flags/Norway.png)
*Format: mp3@CBR320kbps
*Size: 24MB

Tracklist:
1. The Light 05:36
2. The Fright 05:18
******************************
Total playing time: 10:54

Extended info
A collector's dream come true, Traditional Doom Cult contains two rare and unreleased tracks from Darkthrone's Fenriz under the Isengard banner, the iconic solo project of Darkthrone's Fenriz, which was active from the late 1980s to the mid-1990s.

Tracks include The Light - an early song recorded in 1989 - and The Fright from the early 1990s. Both tracks bring to mind the doom-laden grooves (draped in darkness!) present on Isengard's debut release, Vinterskugge.

The recordings were made at the legendary Necrohell studios with Fenriz responsible for all instruments and vocals.

Traditional Doom Cult contains liner notes from Fenriz explaining the background to the tracks.


Technical info
(IMG:https://metalarea.org/images/spectrogram/2016_Dec/6493bc0795cace012c4d31c2e4fd18a3.png)
Input File: Isengard - Traditional Doom Cult - A - The Light.mp3
Channels : 2
Sample Rate : 48000
Precision : 16-bit
Duration : 00:05:29.11 = 15797376 samples ~ 24683.4 CDDA sectors
File Size : 13.2M
Bit Rate : 320k
Sample Encoding: MPEG audio (layer I, II or III)
Comments :
Title=The Light
Artist=Isengard
Album=Traditional Doom Cult
Tracknumber=A/2
Genre=Doom Metal



Register


Go to the top of the page
  Insert nick Quick quote
+Quote Post
 
Start new topic
Replies (1 - 6)
post Dec 19 2016, 19:04:52
Post #2

Правь статус, ####!111
**************
Group: Металариец
Posts: 2,431
Releases: 218
On Forums: 13 years 10 months
Thanks: 5751 time(s)
Unknown


Между прочим, этот релиз (а точнее, его спектры) можно использовать в качестве учебного пособия.
Несмотря на ужасное качество записи, на ней всё равно присутсвуют частоты до 20 КгЦ, как и положено кодеку на CBR 320.
И это причём аналоговый рип с винила.
Go to the top of the page
  Insert nick Quick quote
+Quote Post
post Dec 19 2016, 19:37:02
Post #3

Правь статус, ####!111
**************
Group: Металариец
Posts: 3,092
Releases: 0
From: Москва
On Forums: 12 years 7 months
Thanks: 487 time(s)
Russian Federation


1-я песня 1989-го года, 2-я 1990-го, но ранее не издавались.


Thanks:
(1) RUSP73,
Go to the top of the page
  Insert nick Quick quote
+Quote Post
post Dec 21 2016, 08:21:26
Post #4

De Mysteriis Dom Sathanas
**************
Group: Металариец
Posts: 4,045
Releases: 63
From: Doom
On Forums: 12 years 2 months
Thanks: 3450 time(s)
Russian Federation


ЦИТАТА(DMIYUR @ Dec 19 2016, 21:37:02) *
1-я песня 1989-го года, 2-я 1990-го, но ранее не издавались.

А то я уж было подумал новье с непонятным стилем)))
Go to the top of the page
  Insert nick Quick quote
+Quote Post
post Dec 22 2016, 18:02:16
Post #5

железный нечеловек
**********
Group: Металариец
Posts: 1,276
Releases: 3
From: Уфа
On Forums: 11 years 5 months
Thanks: 454 time(s)
Russian Federation


CVLT, что сказать
Go to the top of the page
  Insert nick Quick quote
+Quote Post
post Dec 27 2016, 21:30:44
Post #6

Маньяк
**********
Group: Металариец
Posts: 1,283
Releases: 1
From: Беларусь
On Forums: 12 years 8 months
Thanks: 532 time(s)
Russian Federation


Это хорошо, что его из подвала достали!
Go to the top of the page
  Insert nick Quick quote
+Quote Post
post Apr 28 2017, 20:45:38
Post #7

Black is beautiful
***********
Group: Металариец
Posts: 1,814
Releases: 4
On Forums: 8 years 6 months
Thanks: 366 time(s)
Unknown


In which storage room was this LP? (Tape?) recorded? (IMG:style_emoticons/default/6.gif)
The band is good, but the quality is shit!
Go to the top of the page
  Insert nick Quick quote
+Quote Post

Reply to this topicStart new topic
1 User(s) are reading this topic (1 Guests and 0 Anonymous Users)
0 Members:

 



- Lo-Fi Version Support form
Copyrights and abuse reports form
Time is now: 29th September 2020 - 18:17:02