Welcome Guest ( Log In | Register )

> Golgota - Return To The Old Path (2016), Black Metal
post Dec 20 2016, 04:48:22
Post #1

Аннигилятор пивА
Group Icon
Group: V.I.P
Posts: 52,360
Releases: 16550
From: Koenigsberg - TILZIT
On Forums: 14 years 16 hours
Thanks: 365254 time(s)
Russian Federation


(IMG:https://metalarea.org/images/audiocovers/2016_Dec/acov_tid280117_thumb.jpg)

*Artist: Golgota
*Album: Return To The Old Path
*Year: 2016
*Genre: Black Metal
*Country: Ecuador (IMG:https://metalarea.org/forum/style_images/flags/Ecuador.png)
*Format: mp3@CBR320kbps
*Size: 117MB

Tracklist:
01. Intro
02. Condemned To Hell
03. Return To The Old Path
04. Lapidarios
05. Paradigms
06. Nomads
07. Antipagan Cult
08. Golgota
09. Nocturnal Rite
10. Orthodox Victory
******************************
Total playing time: 50:02



Extended info
Lord Ecklectus - Guitar/Vocal
Sir Krino - Drums
Pathryark - Bass




Technical info
(IMG:https://metalarea.org/images/spectrogram/2016_Dec/2ca4081e0c547304c03ad55e4f8c1ea9.png)
Input File: 02 - Condemned to Hell.mp3
Channels : 2
Sample Rate : 44100
Precision : 16-bit
Duration : 00:04:56.83 = 13090247 samples = 22262.3 CDDA sectors
File Size : 12.0M
Bit Rate : 322k
Sample Encoding: MPEG audio (layer I, II or III)
Comments :
Title=Condemned to Hell
Artist=Golgota
Album=Return to the Old Path
Tracknumber=2/10
Year=2016



Register


Go to the top of the page
  Insert nick Quick quote
+Quote Post
 
Start new topic
Replies (1 - 4)
post Dec 20 2016, 06:11:43
Post #2

Аннигилятор пивА
Group Icon
Group: V.I.P
Posts: 52,360
Releases: 16550
From: Koenigsberg - TILZIT
On Forums: 14 years 16 hours
Thanks: 365254 time(s)
Russian Federation


доп ссылочка
Register


Go to the top of the page
  Insert nick Quick quote
+Quote Post
post Apr 28 2020, 16:41:25
Post #3

Мегаманьяк
***********
Group: Металариец
Posts: 1,656
Releases: 1
From: ecuador
On Forums: 11 years 10 months
Thanks: 1015 time(s)
Ecuador


Register
Go to the top of the page
  Insert nick Quick quote
+Quote Post
post Apr 28 2020, 17:08:38
Post #4

Правь статус, ####!111
**************
Group: Металариец
Posts: 8,143
Releases: 0
From: Москва
On Forums: 10 years 9 months
Thanks: 14469 time(s)
Russian Federation


Перезалейте плз
Go to the top of the page
  Insert nick Quick quote
+Quote Post
post May 23 2020, 06:41:14
Post #5

Group Icon
Group: S-moderation team
Posts: 15,553
Releases: 1440
From: Zagreb
On Forums: 9 years 3 months
Thanks: 69084 time(s)
Croatia


Register


Thanks:
Go to the top of the page
  Insert nick Quick quote
+Quote Post

Reply to this topicStart new topic
1 User(s) are reading this topic (1 Guests and 0 Anonymous Users)
0 Members:

 



- Lo-Fi Version Support form
Copyrights and abuse reports form
Time is now: 28th May 2020 - 12:21:07