Welcome Guest ( Log In | Register )

> Salvation Denied - Devour The Earth (2016), Death Metal
post Dec 22 2016, 14:56:18
Post #1

Serial Uploader
Group Icon
Group: V.I.P
Posts: 35,477
Releases: 33689
From: Lithuania
On Forums: 11 years 2 weeks
Thanks: 386887 time(s)
Lithuania


(IMG:http://metalarea.org/images/audiocovers/2016_Dec/acov_tid280220_thumb.jpg)

*Artist: Salvation Denied
*Album: Devour The Earth
*Year: 2016
*Genre: Death Metal
*Country: United States (IMG:http://metalarea.org/forum/style_images/flags/United%20States.png)
*Format: mp3@CBR320kbps
*Size: 89MB

Tracklist:
01. Apollyon 05:34
02. Beast 03:40
03. Father Of Storms 05:23
04. Lions Amongst Men 06:45
05. Masters Of Crucifixion 02:25
06. Spawning Death 04:37
07. The Duty To Survive 02:44
08. The Misanthropist 03:33
09. Voice Of Flames 02:23
10. Ashes To Angels 04:53
******************************
Total playing time: 41:57



(IMG:http://metalarea.org/images/youtube.png)

Extended info
Scene-rip


Technical info
(IMG:http://metalarea.org/images/spectrogram/2016_Dec/4a9c4023d8aee924c9d1e80f49694552.png)
Input File: 02-salvation_denied-beast-c5a11501.mp3
Channels : 2
Sample Rate : 44100
Precision : 16-bit
Duration : 00:03:40.24 = 9712408 samples = 16517.7 CDDA sectors
File Size : 8.88M
Bit Rate : 322k
Sample Encoding: MPEG audio (layer I, II or III)
Comments :
Title=Beast
Artist=Salvation Denied
Album=Devour the Earth
Tracknumber=2/10
Year=2016
Genre=22



Register


Go to the top of the page
  Insert nick Quick quote
+Quote Post
 
Start new topic
Replies (1 - 7)
post Dec 22 2016, 16:56:50
Post #2

Going home. Flying high.
**************
Group: Металариец
Posts: 12,808
Releases: 0
From: The Land of Shadows
On Forums: 12 years 10 months
Thanks: 20253 time(s)
Russian Federation


в инете их уже с Дисайдами сравнивают вовсю... чёт даже и не знаю))
во второй песне кусок можно считать "по мотивам" Сада начала 90х, но это не одно и то же.
в любом случае, играют бодро.

judaz, зацени! вдруг понравится?
Go to the top of the page
  Insert nick Quick quote
+Quote Post
post Dec 22 2016, 17:37:49
Post #3

Четыре Литра
****
Group: Металариец
Posts: 396
Releases: 0
From: о. Синара
On Forums: 9 years 10 months
Thanks: 59 time(s)
Russian Federation


Добротный американ дэт, звучат убедительно и приятно. Не Дэйсайд конечно, но и не Синдерелла (IMG:style_emoticons/default/crazy.gif)
Go to the top of the page
  Insert nick Quick quote
+Quote Post
post Dec 22 2016, 20:11:26
Post #4

Crush The Enemies
**************
Group: Металариец
Posts: 4,199
Releases: 0
From: Moscow
On Forums: 9 years 9 months
Thanks: 2329 time(s)
Russian Federation



Аналогия с ДетСадом прослеживается,особенно в подаче вокалиста - видимо американский товарищЪ с нежным чуЙством относится к своему именитому коЛЛеге по цеху.

P.S. В целом неплохо,но довольно однообразно - уху особо зацепиться не за что.


Thanks:
Go to the top of the page
  Insert nick Quick quote
+Quote Post
post Dec 23 2016, 14:15:03
Post #5

Два Литра
**
Group: Завсегдатай
Posts: 186
Releases: 8
On Forums: 2 years 11 months
Thanks: 114 time(s)
Russian Federation


Такое себе.
Go to the top of the page
  Insert nick Quick quote
+Quote Post
post Dec 24 2016, 22:18:06
Post #6

Сектант технодро4чер
**************
Group: Металариец
Posts: 5,420
Releases: 143
From: Тимчасово окупована територія
On Forums: 10 years 10 months
Thanks: 5624 time(s)
Ukraine


Register


Go to the top of the page
  Insert nick Quick quote
+Quote Post
post Feb 16 2017, 16:53:54
Post #7

Маньяк
**********
Group: Металариец
Posts: 1,200
Releases: 1
From: Беларусь
On Forums: 11 years 5 months
Thanks: 467 time(s)
Russian Federation


Да это же NYDM чистейший


Thanks:
(1) Metalass,
Go to the top of the page
  Insert nick Quick quote
+Quote Post
post Mar 14 2019, 14:17:14
Post #8

Правь статус, ####!111
**************
Group: Металариец
Posts: 3,495
Releases: 9
From: Москва и МО
On Forums: 12 years 11 months
Thanks: 879 time(s)
Russian Federation


QUOTE(defamer666 @ Dec 23 2016, 05:11:26) *
В целом неплохо,но довольно однообразно - уху особо зацепиться не за что.


Именно так. Вроде и звук хороший, и думаешь, сейчас как пойдет жара, а жара не начинается.
Go to the top of the page
  Insert nick Quick quote
+Quote Post

Reply to this topicStart new topic
1 User(s) are reading this topic (1 Guests and 0 Anonymous Users)
0 Members:

 



- Lo-Fi Version Support form
Copyrights and abuse reports form
Time is now: 26th June 2019 - 21:53:03