Welcome Guest ( Log In | Register )

> Ira Diaboli - The Misanthrope The Traitor And The Ghost [ep] (2014), Symphonic Black Metal
post Dec 27 2016, 10:28:56
Post #1

but I'm white and furry
**********
Group: Металариец
Posts: 1,158
Releases: 418
From: Москва
On Forums: 13 years 4 months
Thanks: 5165 time(s)
Russian Federation


(IMG:https://metalarea.org/images/audiocovers/2016_Dec/acov_tid280427_thumb.jpg)

*Artist: Ira Diaboli
*Album: The Misanthrope The Traitor And The Ghost [ep]
*Year: 2014
*Genre: Symphonic Black Metal
*Country: Greece (IMG:https://metalarea.org/forum/style_images/flags/Greece.png)
*Format: mp3@CBR320kbps
*Size: 35MB

Tracklist:
1. Archangel 05:09
2. The Misanthrope the Traitor and the Ghost 04:22
3. When Devils Cry 04:30
******************************
Total playing time: 14:01



Extended info
lame 3.93


Technical info
(IMG:https://metalarea.org/images/spectrogram/2016_Dec/0109633156c315ef0d55608c1f5d1224.png)
Input File: Ira Diaboli 01 - Archangel.mp3
Channels : 2
Sample Rate : 44100
Precision : 16-bit
Duration : 00:05:09.22 = 13636470 samples = 23191.3 CDDA sectors
File Size : 12.4M
Bit Rate : 320k
Sample Encoding: MPEG audio (layer I, II or III)
Comments :
Title=Archangel
Artist=Ira Diaboli
Album=The Misanthrope The Traitor And The Ghost
Tracknumber=1
Year=2014
Genre=Black Metal



Register


Go to the top of the page
  Insert nick Quick quote
+Quote Post
 
Start new topic
Replies (1 - 2)
post Jun 12 2019, 04:30:55
Post #2

Group: Дух
Posts: 6
Releases: 0
On Forums: 6 months 1 week
Thanks: 1 time(s)
Russian Federation


На удивление очень приличная музыка!
Go to the top of the page
  Insert nick Quick quote
+Quote Post
post Jun 20 2019, 07:33:21
Post #3

Group: Дух
Posts: 6
Releases: 0
On Forums: 6 months 1 week
Thanks: 1 time(s)
Russian Federation


Вкусив сие творение, оценил его по полной программе. Музыкальные идеи, мастерство исполнения, сложность и витиеватость композиций соответствуют уровню Dimmu Borgir.
Очень жаль, что Ira Diaboli произвела на свет божий лишь одно своё детище.
Go to the top of the page
  Insert nick Quick quote
+Quote Post

Reply to this topicStart new topic
2 User(s) are reading this topic (2 Guests and 0 Anonymous Users)
0 Members:

 



- Lo-Fi Version Support form
Copyrights and abuse reports form
Time is now: 27th June 2019 - 07:00:24