Welcome Guest ( Log In | Register )

> Spun In Darkness & Gravewürm - Vengeance From Beyond The Grave [split] (2012), Death Metal | Black/Death Metal
post Dec 27 2016, 18:19:41
Post #1

Satan Soldier
**************
Group: Металариец
Posts: 2,240
Releases: 605
From: IN HELL
On Forums: 5 years 8 months
Thanks: 13090 time(s)
France


(IMG:http://metalarea.org/images/audiocovers/2016_Dec/acov_tid280458_thumb.jpg)

*Artist: Spun In Darkness & Gravewürm
*Album: Vengeance From Beyond The Grave [split]
*Year: 2012
*Genre: Death Metal | Black/Death Metal
*Country: United States (IMG:http://metalarea.org/forum/style_images/flags/United%20States.png) | United States (IMG:http://metalarea.org/forum/style_images/flags/United%20States.png)
*Format: mp3@CBR320kbps
*Size: 99MB

Tracklist:
Spun in Darkness:
01.In Your Grave 05:06
02.Part of You Becomes Part of Me 06:59
03.Temple to the Living God 03:45
04.Carnival Freak Show (Doom Snake Cult cover) 06:17
05.Cloaked in Violence 03:37
Gravewürm:
06.Death Comes... 01:30
07.Funeral 02:09
08.Burn My Soul 03:38
09.Clash of the Titans 04:28
10.Descendants of the Abyss 03:09
11.Damnation and Bloodshed 04:16
******************************
Total playing time: 44:54





Technical info
(IMG:http://metalarea.org/images/spectrogram/2016_Dec/f1256c9a51e014a2d6361b65ec610d3c.png)
Input File: 01 Spun In Darkness - In Your Grave.mp3
Channels : 2
Sample Rate : 44100
Precision : 16-bit
Duration : 00:03:10.29 = 8391921 samples = 14272 CDDA sectors
File Size : 7.70M
Bit Rate : 324k
Sample Encoding: MPEG audio (layer I, II or III)
Comments :
Title=In Your Grave
Artist=Spun In Darkness
Album=Vengeance from Beyond the Grave
Tracknumber=1/11
Year=0000-00-00
Genre=20
Discnumber=1



Register


Go to the top of the page
  Insert nick Quick quote
+Quote Post
 
Start new topic
Replies (1 - 1)
post Sep 14 2018, 10:59:36
Post #2

Маньяк
**********
Group: Металариец
Posts: 1,401
Releases: 0
On Forums: 2 years 2 months
Thanks: 59 time(s)
United Kingdom


Please can anyone reup the 1st track .it cut at duration 3.5 .
Go to the top of the page
  Insert nick Quick quote
+Quote Post

Reply to this topicStart new topic
2 User(s) are reading this topic (2 Guests and 0 Anonymous Users)
0 Members:

 



- Lo-Fi Version Support form
Copyrights and abuse reports form
Time is now: 22nd September 2018 - 02:52:37