Welcome Guest ( Log In | Register )

> Taphos - Demo MMXVI [demo] (2016), Black/Death Metal
post Jan 1 2017, 18:54:23
Post #1

Мегаманьяк
***********
Group: Металариец
Posts: 1,725
Releases: 1365
From: Prešov
On Forums: 5 years 3 months
Thanks: 32849 time(s)
Slovakia


(IMG:http://metalarea.org/images/audiocovers/2017_Jan/acov_tid280794_thumb.jpg)

*Artist: Taphos
*Album: Demo MMXVI [demo]
*Year: 2016
*Genre: Black/Death Metal
*Country: Denmark (IMG:http://metalarea.org/forum/style_images/flags/Denmark.png)
*Format: mp3@CBR320kbps
*Size: 38MB

Tracklist:
1. Venus' death 02:48
2. Upon withered wings 04:38
3. Perpetual void 03:27
4. Venomous tempest 05:42
******************************
Total playing time: 16:35



Technical info
(IMG:http://metalarea.org/images/spectrogram/2017_Jan/19af3a2f49f5147042ceebca15c69c87.png)
Input File: 01. Venus\' Death.mp3
Channels : 2
Sample Rate : 44100
Precision : 16-bit
Duration : 00:02:48.09 = 7412769 samples = 12606.8 CDDA sectors
File Size : 6.83M
Bit Rate : 325k
Sample Encoding: MPEG audio (layer I, II or III)
Comments :
Title=Venus' Death
Artist=Taphos
Album=Demo MMXVI
Tracknumber=01/04
Year=2016
Genre=Death Metal



Register


Go to the top of the page
  Insert nick Quick quote
+Quote Post
 
Start new topic
Replies (1 - 5)
post Jan 2 2017, 02:01:01
Post #2

Absorbence
***********
Group: Металариец
Posts: 1,674
Releases: 215
From: Vastland Abyss of Cthulhu
On Forums: 12 years 8 months
Thanks: 3700 time(s)
Canada


not bad, I, actually, like it!
Go to the top of the page
  Insert nick Quick quote
+Quote Post
post Jan 8 2017, 15:00:09
Post #3

De Mysteriis Dom Sathanas
**************
Group: Металариец
Posts: 3,579
Releases: 63
From: Москва
On Forums: 11 years 2 days
Thanks: 3020 time(s)
Russian Federation


Не увидел блэка..мрачный дезняк!
Go to the top of the page
  Insert nick Quick quote
+Quote Post
post Feb 2 2017, 02:06:59
Post #4

Group: Подсевший
Posts: 26
Releases: 0
On Forums: 6 years 3 weeks
Thanks: 16 time(s)
Russian Federation


https://yadi.sk/d/utOnePt-3CN9Vo


Go to the top of the page
  Insert nick Quick quote
+Quote Post
post May 13 2017, 18:59:26
Post #5

Black is beautiful
***********
Group: Металариец
Posts: 1,716
Releases: 4
On Forums: 7 years 4 months
Thanks: 331 time(s)
Unknown


Good drive.
Go to the top of the page
  Insert nick Quick quote
+Quote Post
post Jun 22 2019, 21:08:07
Post #6

Правь статус, ####!111
**************
Group: Металариец
Posts: 6,489
Releases: 164
From: URUGUAY
On Forums: 12 years 9 months
Thanks: 16438 time(s)
Uruguay


[Compilation] (2018)
Register
Go to the top of the page
  Insert nick Quick quote
+Quote Post

Reply to this topicStart new topic
1 User(s) are reading this topic (1 Guests and 0 Anonymous Users)
0 Members:

 



- Lo-Fi Version Support form
Copyrights and abuse reports form
Time is now: 17th July 2019 - 06:08:21