Welcome Guest ( Log In | Register )

> 

Здесь релизы с живыми прямыми ссылками на lossless

> Ancestral Shadows - The Sorrows Of Centuries Past (2016), Atmospheric Black Metal
post Jan 2 2017, 11:32:18
Post #1
BAN
Banned till
Aug 21 2022, 13:53:24



(IMG:https://metalarea.org/images/audiocovers/2017_Jan/acov_tid280824_thumb.jpg)

*Artist: Ancestral Shadows
*Album: The Sorrows Of Centuries Past
*Year: 2016
*Genre: Atmospheric Black Metal
*Country: United States (IMG:https://metalarea.org/forum/style_images/flags/United%20States.png)
*Format: mp3@CBR320kbps
*Size: 132MB

Tracklist:
01. Forgotten Monuments 02:36
02. The Sorrows Of Centuries Past 09:59
03. Triumph Of Iron Will 08:34
04. I Reflect In Isolation At Dusk 04:00
05. Cry From An Ancient World 08:04
06. Tragic Realm Of Existence 08:44
07. A Burial At Midnight 03:28
08. Alone (Goatmoon cover) 02:44
******************************
Total playing time: 48:09




Extended info
Apparitional Wolf Shadow - Guitars, Synth, Clean/Backing Voices
Mournful Misanthrope - Guitars
Bestial Death Spirit - Bass
Wraithtongue - Voice of Shadows
Heathen - Drums


Technical info
(IMG:https://metalarea.org/images/spectrogram/2017_Jan/2351b60b7a3d8903665358a9a347a88e.png)
Input File: 07 A Burial at Midnight.mp3
Channels : 2
Sample Rate : 44100
Precision : 16-bit
Duration : 00:03:28.08 = 9176504 samples = 15606.3 CDDA sectors
File Size : 11.4M
Bit Rate : 440k
Sample Encoding: MPEG audio (layer I, II or III)
Comments :
Title=A Burial at Midnight
Artist=ANCESTRAL SHADOWS
Album=The Sorrows of Centuries Past
Tracknumber=07
Year=2016



Register


Go to the top of the page
  Insert nick Quick quote
+Quote Post
 
Start new topic
Replies (1 - 7)
post Jan 2 2017, 14:33:00
Post #2

Правь статус, ####!111
**************
Group: Металариец
Posts: 2,520
Releases: 2052
From: Praha
On Forums: 8 years 4 months
Thanks: 56083 time(s)
Czech Republic


Register


Go to the top of the page
  Insert nick Quick quote
+Quote Post
post Jan 3 2017, 07:06:08
Post #3

Group: Подсевший
Posts: 44
Releases: 0
On Forums: 7 years 11 months
Thanks: 32 time(s)
Unknown


Thanks for the HQ links.
good mix of atmospheric and depressive elements in the album
Go to the top of the page
  Insert nick Quick quote
+Quote Post
post Jan 3 2017, 11:13:18
Post #4

ill-dis-punk
*******
Group: Металариец
Posts: 789
Releases: 7
From: Israel,Bat-Yam
On Forums: 15 years 11 months
Thanks: 162 time(s)
Israel


Это интересно ?
Go to the top of the page
  Insert nick Quick quote
+Quote Post
post Jan 3 2017, 11:50:43
Post #5
BAN
Banned till
Aug 21 2022, 13:53:24



Kult...Heathen
Go to the top of the page
  Insert nick Quick quote
+Quote Post
post Jan 6 2017, 17:01:03
Post #6

While Waiting the Worms
***********
Group: Металариец
Posts: 1,508
Releases: 0
On Forums: 8 years 7 months
Thanks: 2331 time(s)
Unknown


понравились отголоски старого Abigor в среднетемповых полифонических мелодиях гитар, приправленные атмосферными клавишами.
во всём остальном не особенно интересно.
кавер на Goatmoon ваще не к месту.
Go to the top of the page
  Insert nick Quick quote
+Quote Post
post May 13 2017, 22:02:43
Post #7

Black is beautiful
***********
Group: Металариец
Posts: 1,908
Releases: 4
On Forums: 10 years 5 months
Thanks: 405 time(s)
Unknown


Oh, it's horny (IMG:style_emoticons/default/20.gif)
A little bit of manipulation with equilizer and: It's good.
Go to the top of the page
  Insert nick Quick quote
+Quote Post
post May 14 2017, 08:16:09
Post #8

Правь статус, ####!111
**************
Group: Металариец
Posts: 9,448
Releases: 0
From: Москва
On Forums: 13 years 1 week
Thanks: 18351 time(s)
Russian Federation


Register
320


Go to the top of the page
  Insert nick Quick quote
+Quote Post

Reply to this topicStart new topic
1 User(s) are reading this topic (1 Guests and 0 Anonymous Users)
0 Members:

 



- Lo-Fi Version Support form
Copyrights and abuse reports form
Time is now: 11th August 2022 - 06:32:00