Welcome Guest ( Log In | Register )

> Dumal - The Lesser God (2017), Black Metal (D5)
post Jan 4 2017, 08:02:21
Post #1

Мегаманьяк
***********
Group: Металариец
Posts: 1,850
Releases: 1466
From: Prešov
On Forums: 5 years 8 months
Thanks: 35885 time(s)
Slovakia


(IMG:http://metalarea.org/images/audiocovers/2017_Jan/acov_tid280891_thumb.jpg)

*Artist: Dumal
*Album: The Lesser God
*Year: 2017
*Genre: Black Metal
*Country: United States (IMG:http://metalarea.org/forum/style_images/flags/United%20States.png)
*Format: mp3@CBR320kbps
*Size: 122MB

Tracklist:
1. Fane of the Clandestine 06:12
2. Lost Caverns 06:13
3. Abrahamic Contagion 08:59
4. The Path to the Fortress is Lined With Statues 06:05
5. Serpents in the Bramble 05:59
6. The Wind Demon 04:28
7. Ukrainia 08:28
8. Spring Will Never Come 05:38
******************************
Total playing time: 52:02



Technical info
(IMG:http://metalarea.org/images/spectrogram/2017_Jan/062030e05dbe04bc494312f2655e8438.png)
Input File: 02. Lost Caverns.mp3
Channels : 2
Sample Rate : 44100
Precision : 16-bit
Duration : 00:06:13.17 = 16456841 samples = 27987.8 CDDA sectors
File Size : 15.2M
Bit Rate : 325k
Sample Encoding: MPEG audio (layer I, II or III)
Comments :
Title=Lost Caverns
Artist=Dumal
Album=The Lesser God
Tracknumber=02/08
Year=2017
Genre=Black Metal



Register


Go to the top of the page
  Insert nick Quick quote
+Quote Post
 
Start new topic
Replies (1 - 8)
post Jan 4 2017, 09:01:25
Post #2

the faceless one
Group Icon
Group: S-moderation team
Posts: 9,246
Releases: 1898
On Forums: 11 years 4 months
Thanks: 112397 time(s)
Russian Federation


Быстрые зеркала, без ожидания, рекламы, капчи, ограничений -
Register


Register


Go to the top of the page
  Insert nick Quick quote
+Quote Post
post Jan 4 2017, 12:30:50
Post #3

Восемь Литров
********
Group: Металариец
Posts: 847
Releases: 163
On Forums: 9 years 2 months
Thanks: 2063 time(s)
Albania


excellent work (IMG:style_emoticons/default/20.gif)
Go to the top of the page
  Insert nick Quick quote
+Quote Post
post Jan 4 2017, 15:02:59
Post #4

Это просто место… где все подошло к концу.
**************
Group: Металариец
Posts: 5,660
Releases: 0
From: Страны Мамонтов
On Forums: 12 years 9 months
Thanks: 2040 time(s)
Antarctica


ЦИТАТА(Velmi @ Jan 4 2017, 10:02:21) *
7. Ukrainia

Новая экзопланета земного типа, находящаяся не дальше чем 50 световых лет от Солнечной системы. В отличие от Вв Альфы Центавра, на ней с вероятностью 90% может быть разумная жизнь.
Go to the top of the page
  Insert nick Quick quote
+Quote Post
post Jan 5 2017, 10:19:07
Post #5

Necromancer
Group Icon
Group: Curation team
Posts: 10,980
Releases: 271
From: Зеленоград
On Forums: 13 years 2 months
Thanks: 8798 time(s)
Russian Federation


(IMG:style_emoticons/default/true_black.gif)
Go to the top of the page
  Insert nick Quick quote
+Quote Post
post Jan 6 2017, 16:11:17    Сейчас играет: Dumal - Lost Caverns
Post #6

Семь Литров
*******
Group: Металариец
Posts: 727
Releases: 52
On Forums: 8 years 10 months
Thanks: 2664 time(s)
Ukraine


Музыка слишком мягковата, а местами даже романтична. Полностью не соответствует обложке.


Thanks:
(1) SSBandera,
Go to the top of the page
  Insert nick Quick quote
+Quote Post
post Jan 18 2017, 20:31:37
Post #7

Правь статус, ####!111
**************
Group: Металариец
Posts: 2,759
Releases: 8
From: Dnipro
On Forums: 11 years 5 months
Thanks: 863 time(s)
Ukraine


Просто охрененный альбом.
Go to the top of the page
  Insert nick Quick quote
+Quote Post
post Apr 12 2018, 14:46:36
Post #8

Маньяк
**********
Group: Металариец
Posts: 1,235
Releases: 1
From: Беларусь
On Forums: 11 years 11 months
Thanks: 497 time(s)
Russian Federation


перезалейте эту красоту, пожалуйста!
Go to the top of the page
  Insert nick Quick quote
+Quote Post
post Apr 15 2018, 17:01:17
Post #9

Маньяк
**********
Group: Металариец
Posts: 1,130
Releases: 0
From: Canada
On Forums: 7 years 1 month
Thanks: 699 time(s)
Canada


QUOTE(Moonshtook @ Apr 12 2018, 08:46:36) *
перезалейте эту красоту, пожалуйста!


Same Parameters from the Web.

Register

Register

Register


Thanks:
(2) boba, kolar666,
Go to the top of the page
  Insert nick Quick quote
+Quote Post

Reply to this topicStart new topic
2 User(s) are reading this topic (2 Guests and 0 Anonymous Users)
0 Members:

 



- Lo-Fi Version Support form
Copyrights and abuse reports form
Time is now: 13th December 2019 - 14:56:50