Welcome Guest ( Log In | Register )

> Mangog - Mangog Awakens (2017), Doom Metal
post Jan 8 2017, 12:56:34
Post #1

Serial Uploader
Group Icon
Group: V.I.P
Posts: 37,287
Releases: 35468
From: Lithuania
On Forums: 12 years 2 months
Thanks: 422713 time(s)
Lithuania


(IMG:http://metalarea.org/images/audiocovers/2017_Jan/acov_tid281098_thumb.jpg)

*Artist: Mangog
*Album: Mangog Awakens
*Year: 2017
*Genre: Doom Metal
*Country: United States (IMG:http://metalarea.org/forum/style_images/flags/United%20States.png)
*Format: mp3@CBR320kbps
*Size: 107MB

Tracklist:
01. Time Is a Prison
02. Meld
03. Ab Intra
04. Of Your Deceit
05. Into Infamy
06. Modern Day Concubine
07. A Tongue Full of Lies
08. Daydreams Within Nightmares
09. Eyes Wide Shut
******************************
Total playing time: 45:44



Technical info
(IMG:http://metalarea.org/images/spectrogram/2017_Jan/7a9f5de8b5e756d14602d2fdf7fced7c.png)
Input File: 02. Meld.mp3
Channels : 2
Sample Rate : 44100
Precision : 16-bit
Duration : 00:03:31.07 = 9308011 samples = 15830 CDDA sectors
File Size : 8.72M
Bit Rate : 331k
Sample Encoding: MPEG audio (layer I, II or III)
Comments :
Title=Meld
Artist=Mangog
Album=Mangog Awakens
Tracknumber=2/9
Year=2017



Register


Go to the top of the page
  Insert nick Quick quote
+Quote Post
 
Start new topic
Replies (1 - 3)
post Jan 8 2017, 18:37:32
Post #2

Up From The Grave
********
Group: Металариец
Posts: 862
Releases: 121
From: Minsk
On Forums: 11 years 3 weeks
Thanks: 2372 time(s)
Belarus




Thanks:
Go to the top of the page
  Insert nick Quick quote
+Quote Post
post Feb 1 2017, 00:14:24
Post #3

Попсовик от брутала
**************
Group: Металариец
Posts: 7,469
Releases: 68
From: Минск
On Forums: 11 years 8 months
Thanks: 6775 time(s)
Belarus


Четвертая песня - вылитый Saint Vitus. Не сказать, чтобы остальное отличалось оригинальностью - трад-дум во всех смыслах - но вот на четвертой Чендлер пуще всего вспомнился.
Послушать рекомендую.
Go to the top of the page
  Insert nick Quick quote
+Quote Post
post Feb 1 2017, 00:16:28
Post #4

Правь статус, ####!111
**************
Group: Металариец
Posts: 47,042
Releases: 732
On Forums: 11 years 2 months
Thanks: 39701 time(s)
Russian Federation


ЦИТАТА(Tular @ Feb 1 2017, 03:14:24) *
Четвертая песня - вылитый Saint Vitus. Не сказать, чтобы остальное отличалось оригинальностью - трад-дум во всех смыслах - но вот на четвертой Чендлер пуще всего вспомнился.
Послушать рекомендую.


Обложка какая то чересчур нетипичная для трада. А превью сильное да
Go to the top of the page
  Insert nick Quick quote
+Quote Post

Reply to this topicStart new topic
1 User(s) are reading this topic (1 Guests and 0 Anonymous Users)
0 Members:

 



- Lo-Fi Version Support form
Copyrights and abuse reports form
Time is now: 11th August 2020 - 14:00:13