Welcome Guest ( Log In | Register )

> Infinight - Fifteen [ep] (2016), Power/Thrash Metal (D5)
post Jan 9 2017, 14:38:03
Post #1

Serial Uploader
Group Icon
Group: V.I.P
Posts: 32,736
Releases: 31034
From: Lithuania
On Forums: 10 years 2 weeks
Thanks: 355735 time(s)
Lithuania


(IMG:http://metalarea.org/images/audiocovers/2017_Jan/acov_tid281125_thumb.jpg)

*Artist: Infinight
*Album: Fifteen [ep]
*Year: 2016
*Genre: Power/Thrash Metal
*Country: Germany (IMG:http://metalarea.org/forum/style_images/flags/Germany.png)
*Format: mp3@CBR320kbps
*Size: 46MB

Tracklist:
01. Goodbye II (This Cruel World) 05:10
02. Here To Conquer (Unplugged) 04:39
03. For The Crown 05:54
04. Through The Endless Night 05:43
******************************
Total playing time: 21:26

(IMG:http://metalarea.org/images/myspace.png)




Technical info
(IMG:http://metalarea.org/images/spectrogram/2017_Jan/014086c6ab2366ad932f0ccea7624b8c.png)
Input File: 02-infinight-here_to_conquer_(unplugged)-c7593764.mp3
Channels : 2
Sample Rate : 44100
Precision : 16-bit
Duration : 00:04:39.98 = 12347250 samples = 20998.7 CDDA sectors
File Size : 11.4M
Bit Rate : 325k
Sample Encoding: MPEG audio (layer I, II or III)
Comments :
Title=Here to Conquer (Unplugged)
Artist=InfiNight
Album=Fifteen
Tracknumber=2/4
Year=2017
Genre=9



Register


Go to the top of the page
  Insert nick Quick quote
+Quote Post
 
Start new topic
Replies (1 - 6)
post Jan 9 2017, 16:31:43
Post #2

_ - = # Thrashogolic # = - _ ... а давайте поржём все вместе
**************
Group: Металариец
Posts: 20,853
Releases: 4444
From: 404
On Forums: 8 years 6 days
Thanks: 27006 time(s)
Ukraine


Наличие трэша здесь сомнительно.


Thanks:
(1) Andrew,
Go to the top of the page
  Insert nick Quick quote
+Quote Post
post Jan 10 2017, 04:24:40
Post #3

Правь статус, ####!111
**************
Group: Металариец
Posts: 5,133
Releases: 0
From: Primorye.ru
On Forums: 7 years 2 months
Thanks: 976 time(s)
Russian Federation


Точнее Thrash metal тут совсем нет.


Thanks:
(1) Andrew,
Go to the top of the page
  Insert nick Quick quote
+Quote Post
post Jan 10 2017, 10:12:53
Post #4

21st Century Schizoid Man
**************
Group: Металариец
Posts: 5,150
Releases: 67
From: Moscow
On Forums: 10 years 1 month
Thanks: 4061 time(s)
Russian Federation


Да, альбом в стилистике Американского павера, поэтому нотки трэша едва уловимы. Мне понравилось, кстати.


Thanks:
(1) Andrew,
Go to the top of the page
  Insert nick Quick quote
+Quote Post
post Jan 11 2017, 18:29:05
Post #5

MDM-Thrash Metal
**************
Group: Металариец
Posts: 6,808
Releases: 412
From: Одесса
On Forums: 10 years 10 months
Thanks: 12973 time(s)
Ukraine


ЦИТАТА(Genuine Thrashiac @ Jan 9 2017, 19:31:43) *
Наличие трэша здесь сомнительно.


100%! Трешем здесь и не пахнет вовсе!
Go to the top of the page
  Insert nick Quick quote
+Quote Post
post Jan 21 2017, 17:35:20    Сейчас играет: whitesnake- come an' get it full album
Post #6

ПОЛИТИК
**************
Group: Металариец
Posts: 5,608
Releases: 4
From: P T
On Forums: 11 years 7 months
Thanks: 322 time(s)
Canada


качнул диско, спасибо:
2005 - Sea Of Knowledge
2011 - Like Puppets
2013 - The Vision (EP)
2015 - Apex Predator
2016 - Fifteen (EP)
Go to the top of the page
  Insert nick Quick quote
+Quote Post
post Mar 5 2017, 05:15:10
Post #7

Правь статус, ####!111
**************
Group: Металариец
Posts: 6,609
Releases: 0
From: Москва
On Forums: 8 years 10 months
Thanks: 11048 time(s)
Russian Federation


Register
320
Go to the top of the page
  Insert nick Quick quote
+Quote Post

Reply to this topicStart new topic
1 User(s) are reading this topic (1 Guests and 0 Anonymous Users)
0 Members:

 



- Lo-Fi Version Support form
Copyrights and abuse reports form
Time is now: 22nd June 2018 - 21:42:05