Welcome Guest ( Log In | Register )

> Infinight - Fifteen [ep] (2016), Power/Thrash Metal (D5)
post Jan 9 2017, 14:38:03
Post #1

Serial Uploader
Group Icon
Group: V.I.P
Posts: 32,079
Releases: 30394
From: Lithuania
On Forums: 9 years 10 months
Thanks: 349704 time(s)
Lithuania


(IMG:http://metalarea.org/images/audiocovers/2017_Jan/acov_tid281125_thumb.jpg)

*Artist: Infinight
*Album: Fifteen [ep]
*Year: 2016
*Genre: Power/Thrash Metal
*Country: Germany (IMG:http://metalarea.org/forum/style_images/flags/Germany.png)
*Format: mp3@CBR320kbps
*Size: 46MB

Tracklist:
01. Goodbye II (This Cruel World) 05:10
02. Here To Conquer (Unplugged) 04:39
03. For The Crown 05:54
04. Through The Endless Night 05:43
******************************
Total playing time: 21:26

(IMG:http://metalarea.org/images/myspace.png)




Technical info
(IMG:http://metalarea.org/images/spectrogram/2017_Jan/014086c6ab2366ad932f0ccea7624b8c.png)
Input File: 02-infinight-here_to_conquer_(unplugged)-c7593764.mp3
Channels : 2
Sample Rate : 44100
Precision : 16-bit
Duration : 00:04:39.98 = 12347250 samples = 20998.7 CDDA sectors
File Size : 11.4M
Bit Rate : 325k
Sample Encoding: MPEG audio (layer I, II or III)
Comments :
Title=Here to Conquer (Unplugged)
Artist=InfiNight
Album=Fifteen
Tracknumber=2/4
Year=2017
Genre=9



Register


Вернуться к началу страницы
  Insert nick Quick quote
+Цитировать сообщение
 
Создать новую тему
Replies (1 - 6)
post Jan 9 2017, 16:31:43
Post #2

_ - = # Thrashogolic # = - _ ... а давайте поржём все вместе
**************
Group: Металариец
Posts: 20,682
Releases: 4444
From: 404
On Forums: 7 years 10 months
Thanks: 26903 time(s)
Ukraine


Наличие трэша здесь сомнительно.


Thanks:
(1) Andrew,
Вернуться к началу страницы
  Insert nick Quick quote
+Цитировать сообщение
post Jan 10 2017, 04:24:40
Post #3

Правь статус, ####!111
**************
Group: Металариец
Posts: 5,091
Releases: 0
From: Primorye.ru
On Forums: 7 years 3 weeks
Thanks: 957 time(s)
Russian Federation


Точнее Thrash metal тут совсем нет.


Thanks:
(1) Andrew,
Вернуться к началу страницы
  Insert nick Quick quote
+Цитировать сообщение
post Jan 10 2017, 10:12:53
Post #4

21st Century Schizoid Man
**************
Group: Металариец
Posts: 5,009
Releases: 66
From: Moscow
On Forums: 9 years 11 months
Thanks: 3964 time(s)
Russian Federation


Да, альбом в стилистике Американского павера, поэтому нотки трэша едва уловимы. Мне понравилось, кстати.


Thanks:
(1) Andrew,
Вернуться к началу страницы
  Insert nick Quick quote
+Цитировать сообщение
post Jan 11 2017, 18:29:05
Post #5

MDM-Thrash Metal
**************
Group: Металариец
Posts: 6,526
Releases: 404
From: Одесса
On Forums: 10 years 8 months
Thanks: 12455 time(s)
Ukraine


ЦИТАТА(Genuine Thrashiac @ Jan 9 2017, 19:31:43) *
Наличие трэша здесь сомнительно.


100%! Трешем здесь и не пахнет вовсе!
Вернуться к началу страницы
  Insert nick Quick quote
+Цитировать сообщение
post Jan 21 2017, 17:35:20    Сейчас играет: whitesnake- come an' get it full album
Post #6

ПОЛИТИК
**************
Group: Металариец
Posts: 5,607
Releases: 4
From: P T
On Forums: 11 years 5 months
Thanks: 321 time(s)
Canada


качнул диско, спасибо:
2005 - Sea Of Knowledge
2011 - Like Puppets
2013 - The Vision (EP)
2015 - Apex Predator
2016 - Fifteen (EP)
Вернуться к началу страницы
  Insert nick Quick quote
+Цитировать сообщение
post Mar 5 2017, 05:15:10
Post #7

Правь статус, ####!111
**************
Group: Металариец
Posts: 6,609
Releases: 0
From: Москва
On Forums: 8 years 8 months
Thanks: 10852 time(s)
Russian Federation


Register
320
Вернуться к началу страницы
  Insert nick Quick quote
+Цитировать сообщение

ОтветитьСоздать новую тему
1 User(s) are reading this topic (1 Guests and 0 Anonymous Users)
0 Members:

 



- Lo-Fi Version Support form
Copyrights and abuse reports form
Time is now: 21st April 2018 - 23:50:26