Welcome Guest ( Log In | Register )

> Releases Upload / Добавление релизов

Добавить релиз тут/Click here to add release
Рекомендованный хостинг/Recommended file share: files.metalarea.org

> Infinight - Fifteen [ep] (2016), Power/Thrash Metal (D5)
post Jan 9 2017, 14:38:03
Post #1

Serial Uploader
Group Icon
Group: V.I.P
Posts: 28,269
Releases: 26712
From: Lithuania
On Forums: 8 years 7 months
Thanks: 308975 time(s)
Lithuania


(IMG:http://metalarea.org/images/audiocovers/2017_Jan/acov_tid281125_thumb.jpg)

*Artist: Infinight
*Album: Fifteen [ep]
*Year: 2016
*Genre: Power/Thrash Metal
*Country: Germany (IMG:http://metalarea.org/forum/style_images/flags/Germany.png)
*Format: mp3@CBR320kbps
*Size: 46MB

Tracklist:
01. Goodbye II (This Cruel World) 05:10
02. Here To Conquer (Unplugged) 04:39
03. For The Crown 05:54
04. Through The Endless Night 05:43
******************************
Total playing time: 21:26

(IMG:http://metalarea.org/images/myspace.png)




Technical info
(IMG:http://metalarea.org/images/spectrogram/2017_Jan/014086c6ab2366ad932f0ccea7624b8c.png)
Input File: 02-infinight-here_to_conquer_(unplugged)-c7593764.mp3
Channels : 2
Sample Rate : 44100
Precision : 16-bit
Duration : 00:04:39.98 = 12347250 samples = 20998.7 CDDA sectors
File Size : 11.4M
Bit Rate : 325k
Sample Encoding: MPEG audio (layer I, II or III)
Comments :
Title=Here to Conquer (Unplugged)
Artist=InfiNight
Album=Fifteen
Tracknumber=2/4
Year=2017
Genre=9



Register


Вернуться к началу страницы
  Insert nick Quick quote
+Цитировать сообщение
 
Создать новую тему
Replies (1 - 4)
post Jan 9 2017, 16:31:43
Post #2

_ - = # Thrashogolic # = - _ ... а давайте поржём все вместе
**************
Group: Металариец
Posts: 19,910
Releases: 4444
From: 404
On Forums: 6 years 7 months
Thanks: 26020 time(s)
Ukraine


Наличие трэша здесь сомнительно.


Thanks:
(1) Andrew,
Вернуться к началу страницы
  Insert nick Quick quote
+Цитировать сообщение
post Jan 10 2017, 04:24:40
Post #3

Правь статус, ####!111
**************
Group: Металариец
Posts: 4,735
Releases: 0
From: Primorye.ru
On Forums: 5 years 9 months
Thanks: 854 time(s)
Russian Federation


Точнее Thrash metal тут совсем нет.


Thanks:
(1) Andrew,
Вернуться к началу страницы
  Insert nick Quick quote
+Цитировать сообщение
post Jan 10 2017, 10:12:53
Post #4

21st Century Schizoid Man
**************
Group: Металариец
Posts: 4,208
Releases: 50
From: Moscow
On Forums: 8 years 8 months
Thanks: 3509 time(s)
Russian Federation


Да, альбом в стилистике Американского павера, поэтому нотки трэша едва уловимы. Мне понравилось, кстати.


Thanks:
(1) Andrew,
Вернуться к началу страницы
  Insert nick Quick quote
+Цитировать сообщение
post Jan 11 2017, 18:29:05
Post #5

MDM-Thrash Metal
**************
Group: Металариец
Posts: 4,481
Releases: 273
From: Одесса
On Forums: 9 years 5 months
Thanks: 8489 time(s)
Ukraine


ЦИТАТА(Genuine Thrashiac @ Jan 9 2017, 19:31:43) *
Наличие трэша здесь сомнительно.


100%! Трешем здесь и не пахнет вовсе!
Вернуться к началу страницы
  Insert nick Quick quote
+Цитировать сообщение

ОтветитьСоздать новую тему
1 User(s) are reading this topic (1 Guests and 0 Anonymous Users)
0 Members:

 



- Lo-Fi Version Support form
Copyrights and abuse reports form
Time is now: 19th January 2017 - 20:29:40