Welcome Guest ( Log In | Register )

> Necrocock - Houbařské Album (2016), Dark/Doom Metal/Ambient (D5)
post Jan 11 2017, 13:13:27
Post #1

Правь статус, ####!111
**************
Group: Металариец
Posts: 6,493
Releases: 5984
From: Lithuania
On Forums: 13 years 7 months
Thanks: 44777 time(s)
Lithuania


(IMG:https://metalarea.org/images/audiocovers/2017_Jan/acov_tid281225_thumb.jpg)

*Artist: Necrocock
*Album: Houbařské Album
*Year: 2016
*Genre: Dark/Doom Metal/Ambient
*Country: Czech Republic (IMG:https://metalarea.org/forum/style_images/flags/Czech%20Republic.png)
*Format: mp3@VBR311kbps
*Size: 121MB

Tracklist:
1. Smotlacha 04:02
2. Pavučinec plyšový 03:59
3. Phallus impudicus 02:34
4. Houbový Tomáš 03:56
5. Do lesíčka 02:56
6. Nemocná 04:51
7. Klobouk 04:00
8. Otravy opojné 02:52
9. Hadovka smrdutá 04:08
10. Vrhavka 03:46
11. Boletus satanas 03:55
12. Slinotok 03:43
13. Noční houbaření 03:54
14. V houbových vodách 02:54
15. Vánoce v Hlavově ústavu 01:48 (instrumental)
******************************
Total playing time: 53:18

Bandzone

Technical info
(IMG:https://metalarea.org/images/spectrogram/2017_Jan/ab6ae9c190b22066af95fda2c5668a95.png)
Input File: 02-Pavu?inec ply?ov?.mp3
Channels : 2
Sample Rate : 44100
Precision : 16-bit
Duration : 00:03:59.28 = 10552292 samples = 17946.1 CDDA sectors
File Size : 9.56M
Bit Rate : 320k
Sample Encoding: MPEG audio (layer I, II or III)
Comments :
Artist=Necrocock
Album=HoubaЕ™skГ© Album
Year=2016
Genre=9



Register


Go to the top of the page
  Insert nick Quick quote
+Quote Post
 
Start new topic
Replies (1 - 4)
post Jan 11 2017, 17:04:46
Post #2

Шесть Литров
******
Group: Металариец
Posts: 528
Releases: 11
On Forums: 12 years 8 months
Thanks: 214 time(s)
Unknown


Наконец-то выложили, уже не надеялся.
Ну что ж, все в духе предыдущих по первой прослушке.
Дебютник и предпоследний всегда в плеере.
Обожаю его незамысловатую, но оригинальную музычку.


Thanks:
(1) smes,
Go to the top of the page
  Insert nick Quick quote
+Quote Post
post Aug 18 2017, 15:01:52
Post #3

Правь статус, ####!111
**************
Group: Металариец
Posts: 3,334
Releases: 1
From: Рейх
On Forums: 13 years 9 months
Thanks: 897 time(s)
Ukraine


ЦИТАТА(Buregon @ Jan 11 2017, 21:04:46) *
Дебютник и предпоследний всегда в плеере.
Обожаю его незамысловатую, но оригинальную музычку.

А я вот периодически чищу плеер, чтоб не смущали другие группы и не отвлекали от насущного, в том числе новинок. А так бы Некрокок был бы вечен там.
Новый еще до плеера не добрался, только дома на компе 1 раз прошел
Go to the top of the page
  Insert nick Quick quote
+Quote Post
post Nov 23 2019, 04:18:19
Post #4

Group: Дух
Posts: 2
Releases: 0
On Forums: 6 months 2 days
Thanks: 0 time(s)
Unknown


Does anyone have the latest Necrocock album "Křivoklátské Martyrium (2018)"?
Go to the top of the page
  Insert nick Quick quote
+Quote Post
post Jan 13 2020, 16:58:36
Post #5

Шесть Литров
******
Group: Металариец
Posts: 605
Releases: 5
From: Ивантеевка, Московская область
On Forums: 12 years 5 months
Thanks: 215 time(s)
Russian Federation


Register


Thanks:
Go to the top of the page
  Insert nick Quick quote
+Quote Post

Reply to this topicStart new topic
2 User(s) are reading this topic (2 Guests and 0 Anonymous Users)
0 Members:

 



- Lo-Fi Version Support form
Copyrights and abuse reports form
Time is now: 26th May 2020 - 13:11:19