Welcome Guest ( Log In | Register )

> Brutal Unrest - Trinitas (2017), Death Metal
post Jan 12 2017, 17:31:41
Post #1

Serial Uploader
Group Icon
Group: V.I.P
Posts: 38,070
Releases: 36232
From: Lithuania
On Forums: 13 years 7 months
Thanks: 443493 time(s)
Lithuania


(IMG:http://metalarea.org/images/audiocovers/2017_Jan/acov_tid281300_thumb.jpg)

*Artist: Brutal Unrest
*Album: Trinitas
*Year: 2017
*Genre: Death Metal
*Country: Germany (IMG:http://metalarea.org/forum/style_images/flags/Germany.png)
*Format: mp3@CBR320kbps
*Size: 97MB

Tracklist:
01. Systematic Torture 03:43
02. Pathogenic Nation 04:18
03. Pandemic Wings 04:45
04. Sarcophagus' Aftermath 05:43
05. Cotardious 04:14
06. Enslaved by Hate 04:30
07. Direktive 7 04:58
08. Postmortal Enslavement 03:57
09. Covered by Black 05:51
******************************
Total playing time: 41:59

(IMG:http://metalarea.org/images/myspace.png)


Technical info
(IMG:http://metalarea.org/images/spectrogram/2017_Jan/7bbe1bd1cd6831415507ddfbed4f376d.png)
Input File: 02-brutal_unrest-pathogenic_nation-45b60028.mp3
Channels : 2
Sample Rate : 44100
Precision : 16-bit
Duration : 00:04:19.01 = 11422121 samples = 19425.4 CDDA sectors
File Size : 10.5M
Bit Rate : 325k
Sample Encoding: MPEG audio (layer I, II or III)
Comments :
Title=Pathogenic Nation
Artist=Brutal Unrest
Album=Trinitas
Tracknumber=2/9
Year=2017
Genre=9



Register


Go to the top of the page
  Insert nick Quick quote
+Quote Post
 
Start new topic
Replies (1 - 4)
post Jan 12 2017, 18:38:53
Post #2

Сектант технодро4чер
**************
Group: Металариец
Posts: 5,596
Releases: 143
From: Тимчасово окупована територія
On Forums: 13 years 5 months
Thanks: 6008 time(s)
Ukraine


Go to the top of the page
  Insert nick Quick quote
+Quote Post
post Jan 12 2017, 21:10:30
Post #3

Going home. Flying high.
**************
Group: Металариец
Posts: 13,551
Releases: 0
From: The Land of Shadows
On Forums: 15 years 5 months
Thanks: 28376 time(s)
Russian Federation


хорошая дэзня (IMG:style_emoticons/default/20.gif)

зеркало из сети:
Register


Go to the top of the page
  Insert nick Quick quote
+Quote Post
post Jan 12 2017, 21:37:25
Post #4

MDM-Thrash Metal
**************
Group: Металариец
Posts: 10,788
Releases: 1359
From: Одесса
On Forums: 14 years 5 months
Thanks: 32793 time(s)
Ukraine


Register


Register
Go to the top of the page
  Insert nick Quick quote
+Quote Post
post Nov 14 2021, 13:59:26
Post #5

Death and Black Metal Holocaust
**************
Group: Металариец
Posts: 2,860
Releases: 78
From: Technical Death из 90-х
On Forums: 11 years 6 months
Thanks: 7045 time(s)
Unknown


Register


(IMG:style_emoticons/default/metaler.gif)


Thanks:
(2) wendigo, wreak,
Go to the top of the page
  Insert nick Quick quote
+Quote Post

Reply to this topicStart new topic
2 User(s) are reading this topic (2 Guests and 0 Anonymous Users)
0 Members:

 



- Lo-Fi Version Support form
Copyrights and abuse reports form
Time is now: 24th January 2022 - 15:26:43