Welcome Guest ( Log In | Register )

 
Reply to this topicStart new topic
> Marduk - Strigzscara - Warwolf [live] (2015), Black Metal
post Jan 19 2017, 07:44:56
Post #1

Group Icon
Group: S-moderation team
Posts: 15,907
Releases: 1440
From: Zagreb
On Forums: 9 years 5 months
Thanks: 71809 time(s)
Croatia


(IMG:https://metalarea.org/images/audiocovers/2017_Jan/acov_tid282111_thumb.jpg)

*Artist: Marduk
*Album: Strigzscara - Warwolf [live]
*Year: 2015
*Genre: Black Metal
*Country: Sweden (IMG:https://metalarea.org/forum/style_images/flags/Sweden.png)
*Format: mp3@CBR320kbps
*Size: 113MB

Tracklist:
1. Intro 03:10
2. Darkness Breeds Immortality 03:29
3. A Sculpture Of The Night 03:08
4. The Funeral Seemed To Be Endless 03:48
5. On Darkened Wings 03:50
6. The Black Goat... 03:06
7. The Sun Turns Black As Night 03:14
8. Wolves 05:27
9. Stone Stands Its Silent Vigil 03:00
10. Dark Endless 03:37
11. Those Of The Unlight 04:50
12. Still Fucking Dead 03:39
13. Burn My Coffin 04:58
******************************
Total playing time: 49:16

Extended info
12" LP vinyl limited to 500 hand-numbered copies on black vinyl released by Blooddawn Productions.

Live in Norrköping, Sweden, December 1993.


Technical info
(IMG:https://metalarea.org/images/spectrogram/2017_Jan/754ed6c3009188b96346df4d4afe3923.png)
Input File: 03. A Sculpture Of The Night.mp3
Channels : 2
Sample Rate : 44100
Precision : 16-bit
Duration : 00:03:08.60 = 8317040 samples = 14144.6 CDDA sectors
File Size : 7.55M
Bit Rate : 320k
Sample Encoding: MPEG audio (layer I, II or III)
Comments :
Title=A Sculpture Of The Night
Artist=Marduk
Album=Strigzscara - Warwolf
Tracknumber=3
Year=2015
Genre=Black Metal



Register


Go to the top of the page
  Insert nick Quick quote
+Quote Post

Reply to this topicStart new topic
1 User(s) are reading this topic (1 Guests and 0 Anonymous Users)
0 Members:

 



- Lo-Fi Version Support form
Copyrights and abuse reports form
Time is now: 4th August 2020 - 18:48:17