Welcome Guest ( Log In | Register )

> Effrontery - Seven Years Of Agony (2017), Progressive Death Metal
post Jan 26 2017, 11:30:01
Post #1

Аннигилятор пивА
Group Icon
Group: V.I.P
Posts: 52,354
Releases: 16558
From: Koenigsberg - TILZIT
On Forums: 12 years 9 months
Thanks: 359756 time(s)
Russian Federation


(IMG:https://metalarea.org/images/audiocovers/2017_Jan/acov_tid282508_thumb.jpg)

*Artist: Effrontery
*Album: Seven Years Of Agony
*Year: 2017
*Genre: Progressive Death Metal
*Country: Hungary (IMG:https://metalarea.org/forum/style_images/flags/Hungary.png)
*Format: mp3@CBR320kbps
*Size: 67MB

Tracklist:
1. Enter The Misery
2. Autoscopic Journey
3. World Of Subjection
4. Poisonous
5. Profound Marks
6. The Dread Within
7. Revelation
8. Seven Years Of Agony
******************************
Total playing time: 28:44




Extended info
Balázs Molnár - Bass (Ignotus Enthropya, ex-Twister)
Zsolt Filák - Drums
Ferenc Sasvári - Guitars (ex-Crossholder)
Péter Lipák - Guitars, Vocals (Gutted)
Zsolt Lédeczi - Vocals (Deathstruck, Ignotus Enthropya, ex-Teurgia, ex-Limb for a Limb, ex-Paediatrician, ex-Dead Eternity, ex-Red and the Dumbasses, ex-Soul Pilferage)



Technical info
(IMG:https://metalarea.org/images/spectrogram/2017_Jan/2770d3ee5a95c3e79c0d94984e74ec1c.png)
Input File: 05. Profound Marks.mp3
Channels : 2
Sample Rate : 44100
Precision : 16-bit
Duration : 00:03:36.87 = 9563747 samples = 16264.9 CDDA sectors
File Size : 8.68M
Bit Rate : 320k
Sample Encoding: MPEG audio (layer I, II or III)
Comments :
Title=Profound Marks
Artist=Effrontery
Album=Seven years of agony
Tracknumber=5
Year=2017



Register


Go to the top of the page
  Insert nick Quick quote
+Quote Post
 
Start new topic
Replies (1 - 2)
post Sep 8 2017, 18:31:39
Post #2

hearer & reader
**************
Group: Металариец
Posts: 7,532
Releases: 96
From: Moscow
On Forums: 11 years 6 months
Thanks: 7107 time(s)
Russian Federation


Мелодики побольше, чем прога, а так неплохо, твердая четверка.
Go to the top of the page
  Insert nick Quick quote
+Quote Post
post Mar 15 2019, 16:25:12
Post #3

Маньяк
**********
Group: Металариец
Posts: 1,117
Releases: 0
On Forums: 8 months 2 weeks
Thanks: 589 time(s)
Russian Federation


66 mb/320 kbps
Register
Go to the top of the page
  Insert nick Quick quote
+Quote Post

Reply to this topicStart new topic
2 User(s) are reading this topic (2 Guests and 0 Anonymous Users)
0 Members:

 



- Lo-Fi Version Support form
Copyrights and abuse reports form
Time is now: 23rd March 2019 - 04:09:07