Welcome Guest ( Log In | Register )

> Neige Et Noirceur & Daughters Of Sophia - Ascension [split] (2016), Black/Doom Metal/Ambient | Atmospheric Post-Black Metal
post Feb 4 2017, 13:26:27
Post #1

Serial Uploader
Group Icon
Group: V.I.P
Posts: 37,112
Releases: 35296
From: Lithuania
On Forums: 11 years 11 months
Thanks: 419067 time(s)
Lithuania


(IMG:http://metalarea.org/images/audiocovers/2017_Feb/acov_tid282978_thumb.jpg)

*Artist: Neige Et Noirceur & Daughters Of Sophia
*Album: Ascension [split]
*Year: 2016
*Genre: Black/Doom Metal/Ambient | Atmospheric Post-Black Metal
*Country: Canada (IMG:http://metalarea.org/forum/style_images/flags/Canada.png) | France (IMG:http://metalarea.org/forum/style_images/flags/France.png)
*Format: mp3@CBR320kbps
*Size: 90MB

Tracklist:
Neige Et Noirceur:
01. Automne Astral 12:54
02. Hiver 1898 07:00
Daughters Of Sophia:
03. Orchestration Océanique 13:25
04. Déluge 218 06:01
******************************
Total playing time: 39:20

(IMG:http://metalarea.org/images/myspace.png)



Technical info
(IMG:http://metalarea.org/images/spectrogram/2017_Feb/d26aaf117a2bd82fea7e97570df6da9f.png)
Input File: 02. Hiver 1898.mp3
Channels : 2
Sample Rate : 44100
Precision : 16-bit
Duration : 00:07:00.40 = 18539640 samples = 31530 CDDA sectors
File Size : 16.8M
Bit Rate : 320k
Sample Encoding: MPEG audio (layer I, II or III)
Comments :
Title=Hiver 1898
Artist=Neige Et Noirceur
Album=Ascension
Tracknumber=2
Year=2016
Genre=Неизвестно



Register


Go to the top of the page
  Insert nick Quick quote
+Quote Post
 
Start new topic
Replies (1 - 2)
post Feb 4 2017, 14:12:41
Post #2

Правь статус, ####!111
**************
Group: Металариец
Posts: 2,286
Releases: 1008
From: Гиперборе́я
On Forums: 9 years 6 months
Thanks: 21703 time(s)
Russian Federation


Register


Go to the top of the page
  Insert nick Quick quote
+Quote Post
post May 23 2020, 13:26:25
Post #3

Правь статус, ####!111
**************
Group: Металариец
Posts: 8,143
Releases: 0
From: Москва
On Forums: 10 years 9 months
Thanks: 14468 time(s)
Russian Federation


Register
320
Go to the top of the page
  Insert nick Quick quote
+Quote Post

Reply to this topicStart new topic
1 User(s) are reading this topic (1 Guests and 0 Anonymous Users)
0 Members:

 



- Lo-Fi Version Support form
Copyrights and abuse reports form
Time is now: 28th May 2020 - 09:08:10