Welcome Guest ( Log In | Register )

> Tomb Mold - Primordial Malignity (2017), Old School Death Metal
post Feb 5 2017, 15:04:21
Post #1

Аннигилятор пивА
Group Icon
Group: V.I.P
Posts: 45,770
Releases: 13663
From: Koenigsberg - TILZIT
On Forums: 11 years 8 months
Thanks: 302399 time(s)
Russian Federation


(IMG:https://metalarea.org/images/audiocovers/2017_Feb/acov_tid283063_thumb.jpg)

*Artist: Tomb Mold
*Album: Primordial Malignity
*Year: 2017
*Genre: Old School Death Metal
*Country: Canada (IMG:https://metalarea.org/forum/style_images/flags/Canada.png)
*Format: mp3@CBR320kbps
*Size: 80MB

Tracklist:
1. Intro - They Grow Inside 04:08
2. Coincidence of Opposites 03:44
3. Bereavement of Flesh 03:39
4. Primordial Malignity 02:33
5. Merciless Watcher 03:47
6. Clockwise Metamorphosis 03:30
7. Twisted Trial 03:47
8. Vernal Grace - Outro 06:51
******************************
Total playing time: 31:59



Extended info
После двух кассетных демок подоспел и дебютничек.
Max Klebanoff - Drums, Vocals (Abyss, ex-Fragile Existence, ex-Crucifixxx Sodomy)
Derrick Vella - Guitars, Bass




Technical info
(IMG:https://metalarea.org/images/spectrogram/2017_Feb/5eace074fbef8dbd65b1bf42e561ab11.png)
Input File: 03 - Bereavement of Flesh.mp3
Channels : 2
Sample Rate : 44100
Precision : 16-bit
Duration : 00:03:39.77 = 9691637 samples = 16482.4 CDDA sectors
File Size : 9.38M
Bit Rate : 341k
Sample Encoding: MPEG audio (layer I, II or III)
Comments :
Title=Bereavement of Flesh
Artist=Tomb Mold
Album=Primordial Malignity
Tracknumber=3
Year=2017
Genre=Death Metal



Register


Вернуться к началу страницы
  Insert nick Quick quote
+Цитировать сообщение
 
Создать новую тему
Replies (1 - 6)
post Feb 5 2017, 17:03:10
Post #2

Crush! Kill! Destroy!
**************
Group: Металариец
Posts: 4,305
Releases: 15
From: Kaliningrad
On Forums: 10 years 3 months
Thanks: 3998 time(s)
Russian Federation


Ждали-ссс, ознакомимся!
Вернуться к началу страницы
  Insert nick Quick quote
+Цитировать сообщение
post Feb 25 2017, 18:41:29
Post #3

кручу наждак
**************
Group: Металариец
Posts: 2,845
Releases: 84
From: Самара
On Forums: 7 years 9 months
Thanks: 2263 time(s)
Russian Federation


Порожняк какой-то
Вернуться к началу страницы
  Insert nick Quick quote
+Цитировать сообщение
post Jun 22 2017, 08:42:40
Post #4

Русь Понад Усе!
**************
Group: Металариец
Posts: 3,974
Releases: 14
From: Украина
On Forums: 10 years 5 months
Thanks: 1478 time(s)
Ukraine


Очень олдскульненько (IMG:style_emoticons/default/bye.gif) !
Вернуться к началу страницы
  Insert nick Quick quote
+Цитировать сообщение
post Nov 14 2017, 18:47:01
Post #5

Group: Дух
Posts: 3
Releases: 0
On Forums: 8 months 12 hours
Thanks: 0 time(s)
Ukraine


ЦИТАТА(recber @ Jun 22 2017, 08:42:40) *
Очень олдскульненько (IMG:style_emoticons/default/bye.gif) !

Да, Кулличелло, мне тож понравилось)
Вернуться к началу страницы
  Insert nick Quick quote
+Цитировать сообщение
post Nov 14 2017, 18:56:31
Post #6

Аннигилятор пивА
Group Icon
Group: V.I.P
Posts: 45,770
Releases: 13663
From: Koenigsberg - TILZIT
On Forums: 11 years 8 months
Thanks: 302399 time(s)
Russian Federation


освежаю
Register

Register


Вернуться к началу страницы
  Insert nick Quick quote
+Цитировать сообщение
post Dec 20 2017, 22:11:53
Post #7

Литр
*
Group: Подсевший
Posts: 69
Releases: 1
On Forums: 6 years 2 months
Thanks: 41 time(s)
Latvia


Great stuff !
Вернуться к началу страницы
  Insert nick Quick quote
+Цитировать сообщение

ОтветитьСоздать новую тему
1 User(s) are reading this topic (1 Guests and 0 Anonymous Users)
0 Members:

 



- Lo-Fi Version Support form
Copyrights and abuse reports form
Time is now: 23rd February 2018 - 03:46:13