Welcome Guest ( Log In | Register )

> Tomb Mold - Primordial Malignity (2017), Old School Death Metal
post Feb 5 2017, 15:04:21
Post #1

Аннигилятор пивА
Group Icon
Group: V.I.P
Posts: 48,779
Releases: 14911
From: Koenigsberg - TILZIT
On Forums: 12 years 3 months
Thanks: 326829 time(s)
Russian Federation


(IMG:https://metalarea.org/images/audiocovers/2017_Feb/acov_tid283063_thumb.jpg)

*Artist: Tomb Mold
*Album: Primordial Malignity
*Year: 2017
*Genre: Old School Death Metal
*Country: Canada (IMG:https://metalarea.org/forum/style_images/flags/Canada.png)
*Format: mp3@CBR320kbps
*Size: 80MB

Tracklist:
1. Intro - They Grow Inside 04:08
2. Coincidence of Opposites 03:44
3. Bereavement of Flesh 03:39
4. Primordial Malignity 02:33
5. Merciless Watcher 03:47
6. Clockwise Metamorphosis 03:30
7. Twisted Trial 03:47
8. Vernal Grace - Outro 06:51
******************************
Total playing time: 31:59



Extended info
После двух кассетных демок подоспел и дебютничек.
Max Klebanoff - Drums, Vocals (Abyss, ex-Fragile Existence, ex-Crucifixxx Sodomy)
Derrick Vella - Guitars, Bass




Technical info
(IMG:https://metalarea.org/images/spectrogram/2017_Feb/5eace074fbef8dbd65b1bf42e561ab11.png)
Input File: 03 - Bereavement of Flesh.mp3
Channels : 2
Sample Rate : 44100
Precision : 16-bit
Duration : 00:03:39.77 = 9691637 samples = 16482.4 CDDA sectors
File Size : 9.38M
Bit Rate : 341k
Sample Encoding: MPEG audio (layer I, II or III)
Comments :
Title=Bereavement of Flesh
Artist=Tomb Mold
Album=Primordial Malignity
Tracknumber=3
Year=2017
Genre=Death Metal



Register


Go to the top of the page
  Insert nick Quick quote
+Quote Post
 
Start new topic
Replies (1 - 6)
post Feb 5 2017, 17:03:10
Post #2

Crush! Kill! Destroy!
**************
Group: Металариец
Posts: 4,539
Releases: 15
From: Kaliningrad
On Forums: 10 years 10 months
Thanks: 4245 time(s)
Russian Federation


Ждали-ссс, ознакомимся!
Go to the top of the page
  Insert nick Quick quote
+Quote Post
post Feb 25 2017, 18:41:29
Post #3

кручу наждак
**************
Group: Металариец
Posts: 3,392
Releases: 89
From: Самара
On Forums: 8 years 4 months
Thanks: 2535 time(s)
Russian Federation


Порожняк какой-то


Thanks:
(1) Ghostb,
Go to the top of the page
  Insert nick Quick quote
+Quote Post
post Jun 22 2017, 08:42:40
Post #4

Русь Понад Усе!
**************
Group: Металариец
Posts: 4,056
Releases: 15
From: Украина
On Forums: 11 years 2 weeks
Thanks: 1562 time(s)
Ukraine


Очень олдскульненько (IMG:style_emoticons/default/bye.gif) !


Thanks:
(1) Ghostb,
Go to the top of the page
  Insert nick Quick quote
+Quote Post
post Nov 14 2017, 18:47:01
Post #5

Group: Дух
Posts: 3
Releases: 0
On Forums: 1 year 2 months
Thanks: 1 time(s)
Ukraine


ЦИТАТА(recber @ Jun 22 2017, 08:42:40) *
Очень олдскульненько (IMG:style_emoticons/default/bye.gif) !

Да, Кулличелло, мне тож понравилось)


Thanks:
(1) nunim,
Go to the top of the page
  Insert nick Quick quote
+Quote Post
post Nov 14 2017, 18:56:31
Post #6

Аннигилятор пивА
Group Icon
Group: V.I.P
Posts: 48,779
Releases: 14911
From: Koenigsberg - TILZIT
On Forums: 12 years 3 months
Thanks: 326829 time(s)
Russian Federation


освежаю
Register

Register


Go to the top of the page
  Insert nick Quick quote
+Quote Post
post Dec 20 2017, 22:11:53
Post #7

Литр
*
Group: Подсевший
Posts: 70
Releases: 1
On Forums: 6 years 9 months
Thanks: 43 time(s)
Latvia


Great stuff !


Thanks:
(1) nunim,
Go to the top of the page
  Insert nick Quick quote
+Quote Post

Reply to this topicStart new topic
1 User(s) are reading this topic (1 Guests and 0 Anonymous Users)
0 Members:

 



- Lo-Fi Version Support form
Copyrights and abuse reports form
Time is now: 19th September 2018 - 11:43:52