Welcome Guest ( Log In | Register )

> 

Здесь релизы с живыми прямыми ссылками на lossless

> Achral Necrosis - Sanguinis Sigillum (2014), Black Metal
post Feb 9 2017, 06:56:28
Post #1

Правь статус, ####!111
**************
Group: Металариец
Posts: 2,285
Releases: 1009
From: Гиперборе́я
On Forums: 9 years 13 hours
Thanks: 21615 time(s)
Russian Federation


(IMG:https://metalarea.org/images/audiocovers/2017_Feb/acov_tid283212_thumb.jpg)

*Artist: Achral Necrosis
*Album: Sanguinis Sigillum
*Year: 2014
*Genre: Black Metal
*Country: United States (IMG:https://metalarea.org/forum/style_images/flags/United%20States.png)
*Format: mp3@CBR320kbps
*Size: 153MB

Tracklist:
01. Daimonum 06:54
02. Exiled 07:49
03. AntiCosmic Void 08:30
04. Rendering Light Obsolete 05:51
05. Eosphoros Rising 03:39
06. Aeon of Horus 11:11
07. Sanguinis Sigillum 06:29
08. Eye of Algol 07:18
09. Luna Luciferi 08:48
******************************
Total playing time: 1:06:29




Technical info
(IMG:https://metalarea.org/images/spectrogram/2017_Feb/46d7360f7e4a4832d488166496c1d225.png)
Input File: 02 - Exiled.mp3
Channels : 2
Sample Rate : 44100
Precision : 16-bit
Duration : 00:07:49.78 = 20717342 samples = 35233.6 CDDA sectors
File Size : 18.8M
Bit Rate : 320k
Sample Encoding: MPEG audio (layer I, II or III)
Comments :
Title=Exiled
Artist=Achral Necrosis
Album=Sanguinis Sigillum
Tracknumber=02/09
Year=2014
Genre=Black Metal



Register


Go to the top of the page
  Insert nick Quick quote
+Quote Post
 
Start new topic
Replies (1 - 3)
post Feb 9 2017, 10:32:27
Post #2

Правь статус, ####!111
**************
Group: Металариец
Posts: 2,285
Releases: 1009
From: Гиперборе́я
On Forums: 9 years 13 hours
Thanks: 21615 time(s)
Russian Federation


Register


Thanks:
Go to the top of the page
  Insert nick Quick quote
+Quote Post
post Jun 1 2017, 09:03:37
Post #3

antithesis
**************
Group: Металариец
Posts: 2,865
Releases: 32
From: VRN
On Forums: 9 years 5 months
Thanks: 1709 time(s)
Russian Federation


атмосфера потрясающая
Go to the top of the page
  Insert nick Quick quote
+Quote Post
post Jun 8 2019, 08:34:00
Post #4


Group Icon
Group: S-moderation team
Posts: 12,590
Releases: 1439
From: Zagreb
On Forums: 8 years 8 months
Thanks: 54516 time(s)
Croatia


Register
Go to the top of the page
  Insert nick Quick quote
+Quote Post

Reply to this topicStart new topic
1 User(s) are reading this topic (1 Guests and 0 Anonymous Users)
0 Members:

 



- Lo-Fi Version Support form
Copyrights and abuse reports form
Time is now: 15th November 2019 - 01:51:48