Welcome Guest ( Log In | Register )

> Dehumanized Deity - Cemetery Souls (2017), Death/Black Metal
post Feb 9 2017, 09:44:57
Post #1

Аннигилятор пивА
Group Icon
Group: V.I.P
Posts: 49,579
Releases: 15329
From: Koenigsberg - TILZIT
On Forums: 12 years 4 months
Thanks: 334202 time(s)
Russian Federation


(IMG:https://metalarea.org/images/audiocovers/2017_Feb/acov_tid283232_thumb.jpg)

*Artist: Dehumanized Deity
*Album: Cemetery Souls
*Year: 2017
*Genre: Death/Black Metal
*Country: Canada (IMG:https://metalarea.org/forum/style_images/flags/Canada.png)
*Format: mp3@CBR320kbps
*Size: 118MB

Tracklist:
01. Dishonour Among Thieves 06:02
02. Suicide of a Shattered Mind 06:32
03. Dig My Grave In Hell 03:06
04. Cemetery Souls 07:36
05. A Life Once Lived 05:32
06. Sufferance 03:24
07. Claustrophobia 03:42
08. The Absence of God 04:50
09. Dreaming of Death 04:18
10. Embrace the Chaos 04:38
******************************
Total playing time: 49:40




Technical info
(IMG:https://metalarea.org/images/spectrogram/2017_Feb/4b364873f005ae66f2842e3103ad3cbc.png)
Input File: Dehumanized Deity - Cemetery Souls - 03 Dig My Grave In Hell.mp3
Channels : 2
Sample Rate : 44100
Precision : 16-bit
Duration : 00:03:06.09 = 8206437 samples = 13956.5 CDDA sectors
File Size : 7.60M
Bit Rate : 327k
Sample Encoding: MPEG audio (layer I, II or III)
Comments :
Title=Dig My Grave In Hell
Artist=Dehumanized Deity
Album=Cemetery Souls
Tracknumber=3
Year=2017



Register


Go to the top of the page
  Insert nick Quick quote
+Quote Post
 
Start new topic
Replies (1 - 1)
post Oct 11 2018, 19:56:42    Сейчас играет: Dysylumn - Embrasement
Post #2

antithesis
**************
Group: Металариец
Posts: 2,353
Releases: 29
From: VRN
On Forums: 8 years 5 months
Thanks: 1240 time(s)
Russian Federation


reuploaded
Register
Go to the top of the page
  Insert nick Quick quote
+Quote Post

Reply to this topicStart new topic
1 User(s) are reading this topic (1 Guests and 0 Anonymous Users)
0 Members:

 



- Lo-Fi Version Support form
Copyrights and abuse reports form
Time is now: 23rd October 2018 - 17:50:14