Welcome Guest ( Log In | Register )

> Thormesis - Trümmerfarben (2017), Pagan Black Metal (D6)
post Feb 9 2017, 15:04:14
Post #1
BAN
RO till
Feb 18 2020, 21:33:53



(IMG:https://metalarea.org/images/audiocovers/2017_Feb/acov_tid283257_thumb.jpg)

*Artist: Thormesis
*Album: Trümmerfarben
*Year: 2017
*Genre: Pagan Black Metal
*Country: Germany (IMG:https://metalarea.org/forum/style_images/flags/Germany.png)
*Format: mp3@CBR320kbps
*Size: 110MB

Tracklist:
01. Intro - Aetas Nova 01:48
02. Trümmerfarben 05:38
03. Waheelas Fährte 07:43
04. Lodernd Flammen 05:27
05. Die Klagen der Einöde 06:08
06. Verblasst 05:54
07. In Stille wachen die Toten 05:57
08. Im Herbst trugen sie mich fort 06:41
09. Outro - Vale 02:36
******************************
Total playing time: 47:52

(IMG:https://metalarea.org/images/myspace.png)


Technical info
(IMG:https://metalarea.org/images/spectrogram/2017_Feb/0bea3e40720038211bc1c3ec8792d840.png)
Input File: 03. Waheelas Faerthe.mp3
Channels : 2
Sample Rate : 44100
Precision : 16-bit
Duration : 00:07:42.91 = 20414331 samples = 34718.2 CDDA sectors
File Size : 18.6M
Bit Rate : 322k
Sample Encoding: MPEG audio (layer I, II or III)
Comments :
Title=Waheelas Faerthe
Artist=Thormesis
Album=Truemmerfarben
Tracknumber=3
Year=2017
Genre=Metal
Discnumber=1



Register


Go to the top of the page
  Insert nick Quick quote
+Quote Post
 
Start new topic
Replies (1 - 3)
post Feb 9 2017, 18:44:35
Post #2

Сектант технодро4чер
**************
Group: Металариец
Posts: 5,515
Releases: 143
From: Тимчасово окупована територія
On Forums: 11 years 5 months
Thanks: 5770 time(s)
Ukraine


Register


Go to the top of the page
  Insert nick Quick quote
+Quote Post
post Feb 9 2017, 18:52:18
Post #3

hearer & reader
**************
Group: Металариец
Posts: 8,362
Releases: 116
From: Moscow
On Forums: 12 years 5 months
Thanks: 7986 time(s)
Russian Federation




Thanks:
(2) Fess, Woosad,
Go to the top of the page
  Insert nick Quick quote
+Quote Post
post Jul 16 2017, 10:17:34
Post #4

Пять Литров
*****
Group: Металариец
Posts: 435
Releases: 0
On Forums: 3 years 6 months
Thanks: 32 time(s)
Unknown


Good!
Cascading..
Go to the top of the page
  Insert nick Quick quote
+Quote Post

Reply to this topicStart new topic
1 User(s) are reading this topic (1 Guests and 0 Anonymous Users)
0 Members:

 



- Lo-Fi Version Support form
Copyrights and abuse reports form
Time is now: 18th February 2020 - 12:06:29