Welcome Guest ( Log In | Register )

> Mass Hypnosia - Toxiferous Cyanide (2016), Old School Thrash Metal
post Feb 16 2017, 08:56:53
Post #1

Правь статус, ####!111
**************
Group: Металариец
Posts: 25,773
Releases: 18452
From: Г.Харьков
On Forums: 8 years 11 months
Thanks: 364210 time(s)
Unknown


(IMG:http://metalarea.org/images/audiocovers/2017_Feb/acov_tid283612_thumb.jpg)

*Artist: Mass Hypnosia
*Album: Toxiferous Cyanide
*Year: 2016
*Genre: Old School Thrash Metal
*Country: Philippines (IMG:http://metalarea.org/forum/style_images/flags/Philippines.png)
*Format: mp3@CBR320kbps
*Size: 93MB

Tracklist:
1. Heres The Knife
2. Terror Panic
3. Bullet Face
4. Krucifier
5. Stigmata
6. No Mercy For Victory
7. Evil Awakes
8. Toxiferous Cynide
9. Unboud - Outro
******************************
Total playing time: 41:29



Extended info


Technical info
(IMG:http://metalarea.org/images/spectrogram/2017_Feb/385c520e5f51d1da649864d7b9ce8296.png)
Input File: 02 Terror Panic.mp3
Channels : 2
Sample Rate : 44100
Precision : 16-bit
Duration : 00:02:45.19 = 7284703 samples = 12389 CDDA sectors
File Size : 6.61M
Bit Rate : 320k
Sample Encoding: MPEG audio (layer I, II or III)
Comments :
Title=Terror Panic
Artist=Mass Hypnosia
Album=Toxiferous Cyanide
Tracknumber=2
Year=2016
Genre=Thrash Metal



Register


Go to the top of the page
  Insert nick Quick quote
+Quote Post
 
Start new topic
Replies (1 - 5)
post Feb 17 2017, 12:46:05
Post #2

hearer & reader
**************
Group: Металариец
Posts: 9,619
Releases: 170
From: Moscow
On Forums: 13 years 7 months
Thanks: 10626 time(s)
Russian Federation




Thanks:
Go to the top of the page
  Insert nick Quick quote
+Quote Post
post Feb 21 2017, 11:07:04
Post #3

South Of Heaven /адепт ВУДУ
**************
Group: Металариец
Posts: 13,960
Releases: 9
On Forums: 11 years 2 weeks
Thanks: 5557 time(s)
Unknown


Как для Филиппин, так и вполне себе неплохо, ничего нового конечно, но кураж есть.
Go to the top of the page
  Insert nick Quick quote
+Quote Post
post Mar 6 2017, 10:27:36
Post #4

brutalcesar
**************
Group: Металариец
Posts: 18,136
Releases: 69
From: Рязань
On Forums: 12 years 2 months
Thanks: 10157 time(s)
Russian Federation


Откровенно и сыровато. Да и вокал "к месту", надо слушать.
Go to the top of the page
  Insert nick Quick quote
+Quote Post
post Feb 1 2018, 01:00:11
Post #5

Три Литра
***
Group: Завсегдатай
Posts: 205
Releases: 0
From: Madrid
On Forums: 12 years 2 months
Thanks: 66 time(s)
Mexico


Links are dead!
Can someone reup people? Thanks in Advance
Go to the top of the page
  Insert nick Quick quote
+Quote Post
post Feb 1 2018, 01:15:37
Post #6

Правь статус, ####!111
**************
Group: Металариец
Posts: 2,430
Releases: 0
On Forums: 5 years 11 months
Thanks: 3110 time(s)
Russian Federation


From the web, 320
Register


Thanks:
Go to the top of the page
  Insert nick Quick quote
+Quote Post

Reply to this topicStart new topic
1 User(s) are reading this topic (1 Guests and 0 Anonymous Users)
0 Members:

 



- Lo-Fi Version Support form
Copyrights and abuse reports form
Time is now: 18th April 2021 - 00:28:19