Welcome Guest ( Log In | Register )

> Invasion - Destroyer Of Mankind (2017), Old School Death/Thrash Metal
post Feb 16 2017, 18:03:49
Post #1

Правь статус, ####!111
**************
Group: Металариец
Posts: 18,201
Releases: 12311
From: Г.Харьков
On Forums: 7 years 3 months
Thanks: 207570 time(s)
Unknown


(IMG:http://metalarea.org/images/audiocovers/2017_Feb/acov_tid283643_thumb.jpg)

*Artist: Invasion
*Album: Destroyer Of Mankind
*Year: 2017
*Genre: Old School Death/Thrash Metal
*Country: United States (IMG:http://metalarea.org/forum/style_images/flags/United%20States.png)
*Format: mp3@CBR320kbps
*Size: 97MB

Tracklist:
1. I Am the Enemy 05:29
2. Approaching Cauldron of Horror 06:03
3. The Divine Wind 04:57
4. Iron Bottom Sound 05:43
5. Dying on the Beaches of Normandy 04:37
6. A Satisfying Death 05:03
7. Play the Devils Piano 02:49
8. Summon the Wolfpack 05:08
9. Shores of Betio Island 05:47
******************************
Total playing time: 45:36



Extended info


Technical info
(IMG:http://metalarea.org/images/spectrogram/2017_Feb/9b22173a9467cf4cdf25a513297e405e.png)
Input File: 02. Approaching Cauldron of Horror.mp3
Channels : 2
Sample Rate : 44100
Precision : 16-bit
Duration : 00:06:03.58 = 16034010 samples = 27268.7 CDDA sectors
File Size : 14.7M
Bit Rate : 323k
Sample Encoding: MPEG audio (layer I, II or III)
Comments :
Title=Approaching Cauldron of Horror
Artist=Invasion
Album=Destroyer of Mankind
Tracknumber=2
Year=2017
Genre=Black/Death Metal
Discnumber=1



Register


Go to the top of the page
  Insert nick Quick quote
+Quote Post
 
Start new topic
Replies (1 - 6)
post Feb 21 2017, 22:01:03
Post #2

Empty Words
**************
Group: Металариец
Posts: 2,026
Releases: 13
From: Москва
On Forums: 10 years 1 week
Thanks: 2433 time(s)
Russian Federation


Нормалёк! Кому нравятся их предыдущие работы, тот не будет разочарован новым, после семи лет молчания, альбомом. Ребята держат планку, рубят всё такой же бодрый, слегка пришведованный трэш/дэт на тему Второй мировой (IMG:style_emoticons/default/metaler.gif) Рекомендую, но строго олдфагам.
С 2013 года сочинялся сей опус. Однако!
Обязательно приобрету диск, если попадется по сходной цене. Странным образом они его выпустили: лейбл успел уже закрыться и не оставил по себе следов.


Go to the top of the page
  Insert nick Quick quote
+Quote Post
post Feb 22 2017, 10:13:42
Post #3

_ - = # Thrashogolic # = - _ ... а давайте поржём все вместе
**************
Group: Металариец
Posts: 21,095
Releases: 4444
From: 404
On Forums: 9 years 2 months
Thanks: 27538 time(s)
Ukraine


samokot, трэш нам только снится (IMG:style_emoticons/default/smile1.gif) (это исходя из превью - одного трека)
Go to the top of the page
  Insert nick Quick quote
+Quote Post
post Feb 22 2017, 11:07:11
Post #4

Empty Words
**************
Group: Металариец
Posts: 2,026
Releases: 13
From: Москва
On Forums: 10 years 1 week
Thanks: 2433 time(s)
Russian Federation


ЦИТАТА(Genuine Thrashiac @ Feb 22 2017, 12:13:42) *
samokot, трэш нам только снится (IMG:style_emoticons/default/smile1.gif) (это исходя из превью - одного трека)
Не стану спорить. Я должен был написать, скорее, дэт/трэш. Дэзня тут преобладает, но местами чую трэшевую разухабистость.
Go to the top of the page
  Insert nick Quick quote
+Quote Post
post Feb 22 2017, 15:49:19
Post #5
BAN
Banned till
Aug 30 2019, 19:40:36



Ничего так, бодро валят.
Go to the top of the page
  Insert nick Quick quote
+Quote Post
post Mar 28 2017, 20:47:17
Post #6

Schuldinerist
**************
Group: Металариец
Posts: 10,296
Releases: 33
From:
On Forums: 12 years 4 months
Thanks: 6428 time(s)
Russian Federation


а я бы сказал, что Death\Black, причем черная составляющая очень вкусно подчеркивает смертельную,
впрочем на альбоме есть совсем неинтересные трэки, снижающие ценность работы до [b]7/10[/b]
Go to the top of the page
  Insert nick Quick quote
+Quote Post
post Jun 29 2019, 17:16:30
Post #7

Правь статус, ####!111
**************
Group: Металариец
Posts: 6,521
Releases: 164
From: URUGUAY
On Forums: 12 years 10 months
Thanks: 16668 time(s)
Uruguay


320
Register


Thanks:
(1) Corpuscul,
Go to the top of the page
  Insert nick Quick quote
+Quote Post

Reply to this topicStart new topic
2 User(s) are reading this topic (2 Guests and 0 Anonymous Users)
0 Members:

 



- Lo-Fi Version Support form
Copyrights and abuse reports form
Time is now: 24th August 2019 - 14:59:52