Welcome Guest ( Log In | Register )

> Ohtar - Deep Wood's [demo] (2001), Black Metal
post Feb 17 2017, 12:21:03
Post #1


Group Icon
Group: S-moderation team
Posts: 10,812
Releases: 1438
From: Zagreb
On Forums: 8 years 3 months
Thanks: 46566 time(s)
Croatia


(IMG:https://metalarea.org/images/audiocovers/2017_Feb/acov_tid283683_thumb.jpg)

*Artist: Ohtar
*Album: Deep Wood's [demo]
*Year: 2001
*Genre: Black Metal
*Country: Poland (IMG:https://metalarea.org/forum/style_images/flags/Poland.png)
*Format: mp3@CBR320kbps
*Size: 61MB

Tracklist:
1. The Abyss Part II 03:16
2. Order! 07:55
3. Dead Desolation 06:46
4. Y 04:16
******************************
Total playing time: 22:13

(IMG:https://metalarea.org/images/youtube.png)

Extended info
Self-released promo tape.

Re-released in 2003 as a split CD with Antisemitex by Der Sieg Records.

Re-released in 2003 on CD by Supreme Art along with the Wolfschanze demo under the title Woodland Desolation.

Tape Rip + Scans + Pictures.


Technical info
(IMG:https://metalarea.org/images/spectrogram/2017_Feb/a69e5b60573538a544a3112490471b6c.png)
Input File: 02. Order!.mp3
Channels : 2
Sample Rate : 44100
Precision : 16-bit
Duration : 00:07:55.95 = 20989307 samples = 35696.1 CDDA sectors
File Size : 19.0M
Bit Rate : 320k
Sample Encoding: MPEG audio (layer I, II or III)
Comments :
Title=Order!
Artist=Ohtar
Album=Deep Wood's
Tracknumber=2
Year=2001
Genre=Black Metal



Register


Go to the top of the page
  Insert nick Quick quote
+Quote Post
 
Start new topic
Replies (1 - 3)
Blake
post Feb 18 2017, 22:46:59
Post #2

Guests team






-HBY-! спасибо вам!


Thanks:
Go to the top of the page
  Insert nick Quick quote
+Quote Post
post Feb 23 2017, 07:24:53
Post #3

Правь статус, ####!111
**************
Group: Металариец
Posts: 2,750
Releases: 18
From: Eternal darkness
On Forums: 11 years 8 months
Thanks: 6846 time(s)
Russian Federation


Register


Thanks:
(1) NachtWulf,
Go to the top of the page
  Insert nick Quick quote
+Quote Post
post Apr 15 2019, 18:08:57
Post #4

Forever Underground
**************
Group: Металариец
Posts: 5,739
Releases: 0
On Forums: 4 years 2 months
Thanks: 6030 time(s)
Unknown


https://www.youtube.com/watch?v=iSh4J754po8 (IMG:style_emoticons/default/true_black.gif)
Go to the top of the page
  Insert nick Quick quote
+Quote Post

Reply to this topicStart new topic
1 User(s) are reading this topic (1 Guests and 0 Anonymous Users)
0 Members:

 



- Lo-Fi Version Support form
Copyrights and abuse reports form
Time is now: 16th June 2019 - 05:37:37