Welcome Guest ( Log In | Register )

> Abbat Gibur - Пламя Возмездия (2017), Melodic Black Metal
post Feb 18 2017, 15:30:30
Post #1

Group: Дух
Posts: 1
Releases: 1
On Forums: 2 years 11 months
Thanks: 16 time(s)
European Union


(IMG:https://metalarea.org/images/audiocovers/2017_Feb/acov_tid283743_thumb.jpg)

*Artist: Abbat Gibur
*Album: Пламя Возмездия
*Year: 2017
*Genre: Melodic Black Metal
*Country: Lithuania (IMG:https://metalarea.org/forum/style_images/flags/Lithuania.png)
*Format: mp3@CBR320kbps
*Size: 76MB

Tracklist:
1. Месть 07:31
2. Оковы Рабства 05:57
3. Уйдем Во Тьму 05:02
4. Зомби 04:02
5. Армагеддон 05:15
6. Путь К Утренней Звезде 05:08
******************************
Total playing time: 32:55

Technical info
(IMG:https://metalarea.org/images/spectrogram/2017_Feb/8cb71278f35bd0012a2be1cfa5583bcd.png)
Input File: 05.Армагеддон.mp3
Channels : 2
Sample Rate : 44100
Precision : 16-bit
Duration : 00:05:14.86 = 13885194 samples = 23614.3 CDDA sectors
File Size : 12.6M
Bit Rate : 320k
Sample Encoding: MPEG audio (layer I, II or III)
Comments :
Title=Армагеддон
Artist=Abbat Gibur
Album=Пламя Возмездия
Tracknumber=5
Year=2017
Genre=Melodic Black Metal



Register


Go to the top of the page
  Insert nick Quick quote
+Quote Post
 
Start new topic
Replies (1 - 9)
post Feb 18 2017, 15:59:11
Post #2

Маньяк
**********
Group: Металариец
Posts: 1,020
Releases: 373
On Forums: 9 years 2 months
Thanks: 8526 time(s)
Eritrea




Go to the top of the page
  Insert nick Quick quote
+Quote Post
post Feb 18 2017, 16:05:27
Post #3

Правь статус, ####!111
**************
Group: Металариец
Posts: 3,036
Releases: 0
From: Москва
On Forums: 11 years 11 months
Thanks: 446 time(s)
Russian Federation


Команда из Литвы поёт на русском ? (IMG:style_emoticons/default/17.gif)


Thanks:
(1) krotovich,
Go to the top of the page
  Insert nick Quick quote
+Quote Post
post Feb 18 2017, 16:34:26
Post #4

Восемь Литров
********
Group: Металариец
Posts: 802
Releases: 0
From: Черкассы
On Forums: 8 years 1 month
Thanks: 111 time(s)
Ukraine


ЦИТАТА(DMIYUR @ 18th February 2017 - 17:05:27) *
Команда из Литвы поёт на русском ?
Это проблема?
Go to the top of the page
  Insert nick Quick quote
+Quote Post
post Feb 18 2017, 16:39:24
Post #5

Правь статус, ####!111
**************
Group: Металариец
Posts: 3,036
Releases: 0
From: Москва
On Forums: 11 years 11 months
Thanks: 446 time(s)
Russian Federation


ЦИТАТА(krotovich @ Feb 18 2017, 18:34:26) *
Это проблема?


Да нет , просто удивительно . В Литве русских ведь немного живёт , в отличие от Латвии или Эстонии . И по сабжу - в целом неплохо .
Go to the top of the page
  Insert nick Quick quote
+Quote Post
post Feb 18 2017, 16:50:08
Post #6

Правь статус, ####!111
**************
Group: Металариец
Posts: 3,036
Releases: 0
From: Москва
On Forums: 11 years 11 months
Thanks: 446 time(s)
Russian Federation


ЦИТАТА(krotovich @ Feb 18 2017, 18:48:43) *
Без обид


Дык я и не обиделся . (IMG:style_emoticons/default/9.gif)


Thanks:
(1) krotovich,
Go to the top of the page
  Insert nick Quick quote
+Quote Post
post Feb 18 2017, 20:32:38
Post #7

Литр
*
Group: Подсевший
Posts: 75
Releases: 0
From: Москва
On Forums: 12 years 11 months
Thanks: 30 time(s)
Russian Federation


Кал тот ещё (IMG:style_emoticons/default/22.gif)
Go to the top of the page
  Insert nick Quick quote
+Quote Post
post Feb 18 2017, 22:10:01
Post #8

MDM-Thrash Metal
**************
Group: Металариец
Posts: 9,210
Releases: 767
From: Одесса
On Forums: 12 years 5 months
Thanks: 20693 time(s)
Ukraine


https://www.youtube.com/watch?v=-0aMhuv7Pnw (Full Album)

https://www.youtube.com/watch?v=I0rjDtJMk6U

https://www.youtube.com/watch?v=yZBhp9rGeWo

https://www.youtube.com/watch?v=hoJlGMkj9O4

https://www.youtube.com/watch?v=qC_YVnhjdCM

https://www.youtube.com/watch?v=ywz8M1RezrY
Go to the top of the page
  Insert nick Quick quote
+Quote Post
post Feb 23 2017, 08:06:03
Post #9

Правь статус, ####!111
**************
Group: Металариец
Posts: 2,770
Releases: 18
From: Eternal darkness
On Forums: 12 years 3 months
Thanks: 7156 time(s)
Russian Federation


Register


Thanks:
(1) NachtWulf,
Go to the top of the page
  Insert nick Quick quote
+Quote Post
post Mar 16 2017, 21:15:33
Post #10

i listen to black metal
**************
Group: Металариец
Posts: 2,502
Releases: 130
From: Москва-Лианозово
On Forums: 13 years 1 month
Thanks: 2102 time(s)
Russian Federation


не блэк(((
Go to the top of the page
  Insert nick Quick quote
+Quote Post

Reply to this topicStart new topic
2 User(s) are reading this topic (2 Guests and 0 Anonymous Users)
0 Members:

 



- Lo-Fi Version Support form
Copyrights and abuse reports form
Time is now: 26th January 2020 - 23:01:33