Welcome Guest ( Log In | Register )

 
Reply to this topicStart new topic
> Weedcraft - Satan's Weedcraft Heavy Spliffs (2017), Instrumental Stoner/Doom Metal
post Feb 19 2017, 10:33:31
Post #1

Serpent Doom
**************
Group: Металариец
Posts: 2,124
Releases: 654
From: Moscow region
On Forums: 11 years 4 months
Thanks: 11739 time(s)
Russian Federation


(IMG:http://metalarea.org/images/audiocovers/2017_Feb/acov_tid283779_thumb.jpg)

*Artist: Weedcraft
*Album: Satan's Weedcraft Heavy Spliffs
*Year: 2017
*Genre: Instrumental Stoner/Doom Metal
*Country: Poland (IMG:http://metalarea.org/forum/style_images/flags/Poland.png)
*Format: mp3@CBR320kbps
*Size: 81MB

Tracklist:
1. Life's Good 08:43
2. Heavy Spliffs 07:48
3. Satan/Fuzz/Weed 09:00
4. Freedom 35 08:22
******************************
Total playing time: 33:53


(IMG:http://metalarea.org/images/youtube.png)

Technical info
(IMG:http://metalarea.org/images/spectrogram/2017_Feb/42689c0fb3a248f063692a2020c10922.png)
Input File: 02. Heavy Spliffs.mp3
Channels : 2
Sample Rate : 44100
Precision : 16-bit
Duration : 00:07:48.65 = 20667641 samples = 35149 CDDA sectors
File Size : 18.9M
Bit Rate : 323k
Sample Encoding: MPEG audio (layer I, II or III)
Comments :
Title=Heavy Spliffs
Artist=Weedcraft
Album=Satan's Weedcraft Heavy Spliffs
Tracknumber=2/4
Year=2017
Genre=Metal



Register


Go to the top of the page
  Insert nick Quick quote
+Quote Post

Reply to this topicStart new topic
1 User(s) are reading this topic (1 Guests and 0 Anonymous Users)
0 Members:

 



- Lo-Fi Version Support form
Copyrights and abuse reports form
Time is now: 23rd January 2020 - 00:32:57