Welcome Guest ( Log In | Register )

> Scuorn - Parthenope (2017), Epic/Symphonic Black Metal
post Feb 25 2017, 10:09:57
Post #1

Аннигилятор пивА
Group Icon
Group: V.I.P
Posts: 52,360
Releases: 16550
From: Koenigsberg - TILZIT
On Forums: 14 years 7 months
Thanks: 366955 time(s)
Russian Federation


(IMG:http://metalarea.org/images/audiocovers/2017_Feb/acov_tid284158_thumb.jpg)

*Artist: Scuorn
*Album: Parthenope
*Year: 2017
*Genre: Epic/Symphonic Black Metal
*Country: Italy (IMG:http://metalarea.org/forum/style_images/flags/Italy.png)
*Format: mp3@CBR320kbps
*Size: 112MB

Tracklist:
01. Cenner e Fummo 01:59
02. Fra Ciel' e Terr' 08:02
03. Virgilio Mago 05:19
04. Tarantella Nera 02:57
05. Sanghe Amaro 07:01
06. Averno 02:09
07. Sibilla Cumana 05:38
08. Sepeithos 04:41
09. Parthenope 08:52
10. Megaride 01:46
******************************
Total playing time: 48:24




Extended info
SCOURN released the much-anticipated debut album “Parthenope”, recorded mixed and mastered at the world-acclaimed 16th Cellar Studio in Rome in 2016 by the producer Stefano “Saul” Morabito (FLESHGOD APOCALYPSE, HOUR OF PENANCE).

Giulian - All instruments, Vocals (2008-2010, 2014-present) See also: Nahemia, ex-Forbidden Grace
Wolf - Guest Narrated Vocals in the role of "Dragonizio"
Tina Gagliotta - Guest Narrated Vocals in the role of "Parthenope"
Diego Laino - Guest Narrated Vocals in the role of "Ulysses"
Libero Verardi - Guest Narrated Vocals in the role of "Polite"
Riccardo Studer - Orchestrals
Daniele "Ogre" Cristiano - Guest Narrated Vocals in the role of "Virgilio"


Technical info
(IMG:http://metalarea.org/images/spectrogram/2017_Feb/885686043bdb107459ba3049644ac613.png)
Input File: 04 Tarantella Nera.mp3
Channels : 2
Sample Rate : 44100
Precision : 16-bit
Duration : 00:02:57.08 = 7809096 samples = 13280.8 CDDA sectors
File Size : 7.21M
Bit Rate : 326k
Sample Encoding: MPEG audio (layer I, II or III)
Comments :
Title=Tarantella Nera
Artist=SCUORN
Album=Parthenope
Tracknumber=4
Year=2017



Register


Go to the top of the page
  Insert nick Quick quote
+Quote Post
 
Start new topic
Replies (1 - 7)
post Feb 25 2017, 11:13:40
Post #2

Маньяк
**********
Group: Металариец
Posts: 1,373
Releases: 0
From: Russian Federation - St.Petersburg
On Forums: 11 years 10 months
Thanks: 362 time(s)
Russian Federation


Очень даже не плохо! (IMG:style_emoticons/default/smile4.gif)
https://www.youtube.com/watch?v=FODZA01mRpQ
Go to the top of the page
  Insert nick Quick quote
+Quote Post
post Feb 25 2017, 11:29:39
Post #3

Два Литра
**
Group: Завсегдатай
Posts: 182
Releases: 0
On Forums: 6 years 10 months
Thanks: 58 time(s)
Unknown


Mirror?
Go to the top of the page
  Insert nick Quick quote
+Quote Post
post Feb 25 2017, 11:40:10
Post #4

Аннигилятор пивА
Group Icon
Group: V.I.P
Posts: 52,360
Releases: 16550
From: Koenigsberg - TILZIT
On Forums: 14 years 7 months
Thanks: 366955 time(s)
Russian Federation


208MB/320
CD 1 - ORIGINAL + CD 2 - Orchestral Version
Register


Go to the top of the page
  Insert nick Quick quote
+Quote Post
post Oct 31 2017, 22:55:35
Post #5

FOLK METAL FEVER
**************
Group: Металариец
Posts: 2,186
Releases: 6
From: Kyiv
On Forums: 13 years 2 months
Thanks: 286 time(s)
Ukraine


начало воодушевило, но в итоге - эпический пшик.
Go to the top of the page
  Insert nick Quick quote
+Quote Post
post Jul 15 2019, 00:38:20
Post #6

Восемь Литров
********
Group: Металариец
Posts: 853
Releases: 0
On Forums: 11 years 10 months
Thanks: 10 time(s)
Netherlands


Anybody got a working link, please?
Go to the top of the page
  Insert nick Quick quote
+Quote Post
post Aug 2 2019, 22:53:30
Post #7

Восемь Литров
********
Group: Металариец
Posts: 889
Releases: 0
On Forums: 2 years 6 months
Thanks: 29 time(s)
Serbia


PLS REUPLOAD
Go to the top of the page
  Insert nick Quick quote
+Quote Post
post Nov 21 2020, 04:32:31
Post #8

Маньяк
**********
Group: Металариец
Posts: 1,064
Releases: 378
On Forums: 10 years 2 months
Thanks: 8825 time(s)
Eritrea


320/110MB

Register


Thanks:
Go to the top of the page
  Insert nick Quick quote
+Quote Post

Reply to this topicStart new topic
1 User(s) are reading this topic (1 Guests and 0 Anonymous Users)
0 Members:

 



- Lo-Fi Version Support form
Copyrights and abuse reports form
Time is now: 22nd January 2021 - 09:48:37