Welcome Guest ( Log In | Register )

> Prellude & Machinergy & Retaliatory - 3 Way Split [split] (2013), Heavy Metal | Thrash Metal | Death/Thrash Metal (D4)
post Feb 27 2017, 15:43:25
Post #1

Serial Uploader
Group Icon
Group: V.I.P
Posts: 33,280
Releases: 31557
From: Lithuania
On Forums: 10 years 5 months
Thanks: 360486 time(s)
Lithuania


(IMG:http://metalarea.org/images/audiocovers/2017_Feb/acov_tid284247_thumb.jpg)

*Artist: Prellude & Machinergy & Retaliatory
*Album: 3 Way Split [split]
*Year: 2013
*Genre: Heavy Metal | Thrash Metal | Death/Thrash Metal
*Country: Brazil (IMG:http://metalarea.org/forum/style_images/flags/Brazil.png) | Portugal (IMG:http://metalarea.org/forum/style_images/flags/Portugal.png) | Brazil (IMG:http://metalarea.org/forum/style_images/flags/Brazil.png)
*Format: mp3@VBR261kbps
*Size: 128MB

Tracklist:
Prellude:
01. Livre Para Voar 06:14
02. Misterios Do Preludio Dos Tempos 07:20
03. Marchando Para A Luz 07:32
04. Solidão 04:57
05. Grito De Vida 06:37
Machinergy:
06. Rhythm Between Sounds 00:17
07. 1988 04:46
08. Machinevil 02:11
09. Trapollution 01:04
10. Dynamica 02:32
Retaliatory:
11. Intro/ Torture Of Death 04:49
12. The Darkness Inside Me 03:27
13. Empire Of Darkness 04:49
14. Sick For Blood 04:44
15. Before It's Too Late 04:15
******************************
Total playing time: 1:05:34

(IMG:http://metalarea.org/images/myspace.png)





Extended info
Tracklist of this split on Encyclopaedia Metallum is not correct!

Scene CD-rip

(IMG:http://metalarea.org/images/spectrogram/2017_Feb/0fd668d2d3c02e56ccd894d357e04c77.png)
Input File: 02-prellude-misterios_do_preludio_dos_tempos.mp3
Channels : 2
Sample Rate : 44100
Precision : 16-bit
Duration : 00:07:20.93 = 19445145 samples = 33070 CDDA sectors
File Size : 15.3M
Bit Rate : 278k
Sample Encoding: MPEG audio (layer I, II or III)
Comments :
Title=Misterios do Preludio dos Tempos
Artist=Prellude
Album=Tributo ao Spectrus / Rhythm Between Sounds / Torture of Death
Tracknumber=2/15
Year=2013-00-00
Genre=Thrash Metal


Register


Go to the top of the page
  Insert nick Quick quote
+Quote Post
 
Start new topic
Replies (1 - 2)
post Aug 12 2018, 00:10:06
Post #2

Маньяк
**********
Group: Металариец
Posts: 1,430
Releases: 0
On Forums: 2 years 4 months
Thanks: 63 time(s)
United Kingdom


Please can you re-up
Go to the top of the page
  Insert nick Quick quote
+Quote Post
post Aug 12 2018, 12:04:28
Post #3

Маньяк
**********
Group: Металариец
Posts: 1,242
Releases: 25
On Forums: 1 year 2 weeks
Thanks: 2479 time(s)
Unknown


VBR261kbps
Register


Thanks:
(1) Wail,
Go to the top of the page
  Insert nick Quick quote
+Quote Post

Reply to this topicStart new topic
1 User(s) are reading this topic (1 Guests and 0 Anonymous Users)
0 Members:

 



- Lo-Fi Version Support form
Copyrights and abuse reports form
Time is now: 15th November 2018 - 03:23:15