Welcome Guest ( Log In | Register )

> Cirith Gorgor - Bi Den Dode Hant [ep] (2017), Black Metal
post Mar 1 2017, 19:44:30
Post #1

Аннигилятор пивА
Group Icon
Group: V.I.P
Posts: 48,769
Releases: 14908
From: Koenigsberg - TILZIT
On Forums: 12 years 3 months
Thanks: 326744 time(s)
Russian Federation


(IMG:https://metalarea.org/images/audiocovers/2017_Mar/acov_tid284448_thumb.jpg)

*Artist: Cirith Gorgor
*Album: Bi Den Dode Hant [ep]
*Year: 2017
*Genre: Black Metal
*Country: Netherlands (IMG:https://metalarea.org/forum/style_images/flags/Netherlands.png)
*Format: mp3@CBR320kbps
*Size: 62MB

Tracklist:
1. Proclamation of Destruction 06:54
2. The Luciferian Principle 06:00
3. Bi Den Dode Hant 08:23
4. A Vision of Exalted Lucifer 04:48
******************************
Total playing time: 26:05




Extended info
Levithmong - Drums (1996-present), Vocals (2006) See also: Striid, ex-The Beast
Marchosias - Guitars (1999-present) See also: The Spirit Cabinet, ex-Grimm, Lux Haeretica, ex-Zwartketterij, ex-Walpurgisnacht
Satanael - Vocals (2007-2009, 2013-present) See also: Asregen, Raben, Weemoed, ex-Volc Vermaledide, ex-Walpurgisnacht
Waldtyr - Guitars (2010-2012), Bass (2012-present) See also: Orewoe
Valefor - Guitars (2012-present) See also: ex-Grimm, Lux Haeretica



Technical info
(IMG:https://metalarea.org/images/spectrogram/2017_Mar/99f6c82584be55a02faf32e9d1a64381.png)
Input File: 02 The Luciferian Principle.mp3
Channels : 2
Sample Rate : 44100
Precision : 16-bit
Duration : 00:06:00.89 = 15915205 samples = 27066.7 CDDA sectors
File Size : 14.6M
Bit Rate : 324k
Sample Encoding: MPEG audio (layer I, II or III)
Comments :
Title=The Luciferian Principle
Artist=Cirith Gorgor
Album=Bi Den Dode Hant
Tracknumber=2
Year=2017



Register


Go to the top of the page
  Insert nick Quick quote
+Quote Post
 
Start new topic
Replies (1 - 6)
post Mar 1 2017, 20:09:56
Post #2

Аннигилятор пивА
Group Icon
Group: V.I.P
Posts: 48,769
Releases: 14908
From: Koenigsberg - TILZIT
On Forums: 12 years 3 months
Thanks: 326744 time(s)
Russian Federation


ЗЕРКАЛО
Register


Go to the top of the page
  Insert nick Quick quote
+Quote Post
post Mar 2 2017, 06:41:24
Post #3

кручу наждак
**************
Group: Металариец
Posts: 3,392
Releases: 89
From: Самара
On Forums: 8 years 4 months
Thanks: 2535 time(s)
Russian Federation


Вопрос - нахрена столько вокала? Музыку же слушать невозможно.
И был бы еще вокал нормальный, а то какое-то мерзкое верещание.
Go to the top of the page
  Insert nick Quick quote
+Quote Post
post Mar 2 2017, 08:14:26
Post #4

Шесть Литров
******
Group: Металариец
Posts: 649
Releases: 0
On Forums: 10 years 10 months
Thanks: 235 time(s)
Belarus


Прослушал по пути на работу. Только положительные эмоции. Хороший БМ (IMG:style_emoticons/default/true_black.gif)
Go to the top of the page
  Insert nick Quick quote
+Quote Post
post Aug 13 2017, 14:41:38
Post #5

Четыре Литра
****
Group: Металариец
Posts: 343
Releases: 0
On Forums: 2 years 1 month
Thanks: 21 time(s)
Unknown


Very good! (IMG:style_emoticons/default/true_black.gif) (IMG:style_emoticons/default/true_black.gif)
Go to the top of the page
  Insert nick Quick quote
+Quote Post
post Aug 13 2017, 14:58:49
Post #6

Маньяк
**********
Group: Металариец
Posts: 1,486
Releases: 54
On Forums: 7 years 6 months
Thanks: 1947 time(s)
Russian Federation


ЦИТАТА(judaz @ Mar 2 2017, 08:41:24) *
Вопрос - нахрена столько вокала? Музыку же слушать невозможно.
И был бы еще вокал нормальный, а то какое-то мерзкое верещание.

Да какбе понятно было уже, посмотрев на обложку.
Go to the top of the page
  Insert nick Quick quote
+Quote Post
post Jun 13 2018, 19:26:40
Post #7

Watch The Water
*********
Group: Металариец
Posts: 904
Releases: 30
On Forums: 11 years 6 months
Thanks: 1202 time(s)
El Salvador


Абалденная ипишка. The Luciferian Principle в такой-то лихой распев развивается, прям весь день на рипите.
Go to the top of the page
  Insert nick Quick quote
+Quote Post

Reply to this topicStart new topic
2 User(s) are reading this topic (2 Guests and 0 Anonymous Users)
0 Members:

 



- Lo-Fi Version Support form
Copyrights and abuse reports form
Time is now: 18th September 2018 - 18:08:22