Welcome Guest ( Log In | Register )

> The Furor - Cavalries Of The Occult (2017), Old School Death/Black Metal
post Mar 2 2017, 11:03:17
Post #1

Аннигилятор пивА
Group Icon
Group: V.I.P
Posts: 52,360
Releases: 16553
From: Koenigsberg - TILZIT
On Forums: 13 years 7 months
Thanks: 363783 time(s)
Russian Federation


(IMG:http://metalarea.org/images/audiocovers/2017_Mar/acov_tid284479_thumb.jpg)

*Artist: The Furor
*Album: Cavalries Of The Occult
*Year: 2017
*Genre: Old School Death/Black Metal
*Country: Australia (IMG:http://metalarea.org/forum/style_images/flags/Australia.png)
*Format: mp3@CBR320kbps
*Size: 126MB

Tracklist:
01. Death Manifest
02. Cavalries Of The Occult
03. Second Coming Slaughtered
04. The Flames Of Fate
05. Storm Of Swords
06. The 30 Year War
07. Rampage Upon The Rational
08. Fomes Peccati
09. Totaliterror
******************************
Total playing time: 54:25




Extended info
Supreme Australian Black/Death Metal overkill!

Dizazter - Khaos Drum Molestations/ Vocal Missiles (Bloodlust, Depravity, Impiety, Mhorgl, ex-Dybbuk, ex-Malignant Monster, ex-Militant Mass, ex-Pagan, ex-Pathogen, ex-Shrapnel, ex-Psychonaut, ex-Earth Rot, ex-Nervecell, ex-Choke)
Hellhound - Merciless Christ Axecution (ex-Samain, ex-Magan, ex-Nazgul)
The Grand Impaler - Ballistic Bass from Beyond (Bloodlust, Infected, Mhorgl, Tyrant)



Technical info
(IMG:http://metalarea.org/images/spectrogram/2017_Mar/7750875a3e25a32c9ac08ca47ef92fcd.png)
Input File: 03 Second Coming Slaughtered.mp3
Channels : 2
Sample Rate : 44100
Precision : 16-bit
Duration : 00:05:06.11 = 13499363 samples = 22958.1 CDDA sectors
File Size : 12.5M
Bit Rate : 327k
Sample Encoding: MPEG audio (layer I, II or III)
Comments :
Title=Second Coming Slaughtered
Artist=The Furor
Album=Cavalries of the Occult
Tracknumber=3
Year=2017
Genre=Black Metal



Register


Go to the top of the page
  Insert nick Quick quote
+Quote Post
 
Start new topic
Replies (1 - 5)
post Mar 2 2017, 11:58:31
Post #2

Аннигилятор пивА
Group Icon
Group: V.I.P
Posts: 52,360
Releases: 16553
From: Koenigsberg - TILZIT
On Forums: 13 years 7 months
Thanks: 363783 time(s)
Russian Federation


Сумасшедший барабанер, он еще и поет (IMG:style_emoticons/default/fear.gif) злейший олдскул
зеркало
Register


Go to the top of the page
  Insert nick Quick quote
+Quote Post
post Mar 2 2017, 12:38:53
Post #3

\m/
Group Icon
Group: S-moderation team
Posts: 7,733
Releases: 19
From: Петропавловск-Камчатский
On Forums: 10 years 7 months
Thanks: 7377 time(s)
Russian Federation


ЦИТАТА(aesteticvice @ 2nd March 2017 - 22:58:31) *
Сумасшедший барабанер

Другого и не надо. Превью порадовало (IMG:style_emoticons/default/metaler.gif)
Go to the top of the page
  Insert nick Quick quote
+Quote Post
post Jun 23 2018, 15:05:27
Post #4

Правь статус, ####!111
**************
Group: Металариец
Posts: 4,430
Releases: 0
From: Одесса
On Forums: 11 years 10 months
Thanks: 2851 time(s)
Unknown


Quite intense and ravaging. Sounds good. (IMG:style_emoticons/default/9.gif)
Go to the top of the page
  Insert nick Quick quote
+Quote Post
post Jan 14 2020, 13:03:24
Post #5

Crush! Kill! Destroy!
**************
Group: Металариец
Posts: 5,228
Releases: 15
From: Kaliningrad
On Forums: 12 years 2 months
Thanks: 4814 time(s)
Russian Federation


Раздайте плиз!
Go to the top of the page
  Insert nick Quick quote
+Quote Post
post Jan 14 2020, 14:29:18
Post #6

Три Литра
***
Group: Завсегдатай
Posts: 227
Releases: 0
On Forums: 11 years 6 months
Thanks: 358 time(s)
Russian Federation


320 cbr

Register


Go to the top of the page
  Insert nick Quick quote
+Quote Post

Reply to this topicStart new topic
2 User(s) are reading this topic (2 Guests and 0 Anonymous Users)
0 Members:

 



- Lo-Fi Version Support form
Copyrights and abuse reports form
Time is now: 24th January 2020 - 01:01:42