Welcome Guest ( Log In | Register )

> Forum rules / Правила раздела

Here go releases which can't go to New releases forums due lack of information, stolen links or incorrect data and just founded in other sites links with minimum info. Reissue of this releases through Add release form with added/corrected data, info and own links highly welcomed.

Сюда уходят релизы, не пропущенные в основные релизные форумы по причинам отсутствия, недостаточности или неверности/некорректности сопровождающей информации, содержащие ссылки, указывающие на файлы, залитые не автором темы, а так же просто найденные где-то ссылки с минимумом информации. Переоформление тем отсюда через форму Добавления релиза с перезаливкой ссылок крайне приветствуется.

> Metamorphosis - The Turning Point (2016), Psychedelic/Progressive Rock (D)
post Mar 12 2017, 16:38:34
Post #1

дууумер!
**************
Group: Металариец
Posts: 2,712
Releases: 4
From: SPb
On Forums: 13 years 6 days
Thanks: 865 time(s)
Russian Federation


(IMG:http://metalarea.org/images/audiocovers/2017_Mar/acov_tid285159_thumb.jpg)

*Artist: Metamorphosis
*Album: The Turning Point
*Year: 2016
*Genre: Psychedelic/Progressive Rock
*Country: Switzerland (IMG:http://metalarea.org/forum/style_images/flags/Switzerland.png)
*Format: mp3@CBR320kbps
*Size: 119MB

Tracklist:
1. Can An Angel Bring Me Back From Death To Life (Pt.1) (4:32)
2. The Turning Point (7:33)
3. Can An Angel Bring Me Back From Death To Life (Pt.2) (8:01)
4. What Do I Do Now (8:58)
5. Hold The Time (4:36)
6. Zahra (8:27)
7. Nobody's No One (8:44)
8. Now It's Clear (0:56)
******************************
Total playing time: 51:47

Extended info
Интересный альбом. Гораздо живее предыдущего, при этом фирменная затягивающая атмосфера осталась.


Technical info
(IMG:http://metalarea.org/images/spectrogram/2017_Mar/038f1592c7606a9a175ee9060ae42d83.png)
Input File: 01. Can an angel bring me back from death to life (part1).mp3
Channels : 2
Sample Rate : 44100
Precision : 16-bit
Duration : 00:04:32.69 = 12025805 samples = 20452 CDDA sectors
File Size : 11.0M
Bit Rate : 323k
Sample Encoding: MPEG audio (layer I, II or III)
Comments :
Title=01. Can an angel bring me back from death to life (part1)
Artist=Metamorphosis
Album=The turning point
Tracknumber=01
Year=2016
Genre=Progressive Rock



Register


Go to the top of the page
  Insert nick Quick quote
+Quote Post
 
Start new topic
Replies (1 - 4)
post Mar 12 2017, 19:13:00
Post #2

дууумер!
**************
Group: Металариец
Posts: 2,712
Releases: 4
From: SPb
On Forums: 13 years 6 days
Thanks: 865 time(s)
Russian Federation


Зачем в find? В неформат кидайте тогда уж. Или добавьте слово "метал" в стиль и в релизы. Альбом, кстати, тяжелее предшественника, который есть на форуме.
Go to the top of the page
  Insert nick Quick quote
+Quote Post
post Mar 12 2017, 19:24:11
Post #3

Аннигилятор пивА
Group Icon
Group: V.I.P
Posts: 52,360
Releases: 16550
From: Koenigsberg - TILZIT
On Forums: 13 years 10 months
Thanks: 364637 time(s)
Russian Federation


ЦИТАТА(White_eagle @ Mar 12 2017, 18:13:00) *
Зачем в find? В неформат кидайте тогда уж. Или добавьте слово "метал" в стиль и в релизы. Альбом, кстати, тяжелее предшественника, который есть на форуме.

а мне он чет совсем не понравился, с полгодика назад скачал-послушал-удалил, по моему как-то они потеряли в той пинкфлойдистости которая была им присуща, растеклись какой-то роковой водой, да он поживее и от этого потерял в атмосфере и психоделичности, по моему один трэк мне более-менее понравился и все (IMG:style_emoticons/default/6.gif) а банда была одной из любимейших
Go to the top of the page
  Insert nick Quick quote
+Quote Post
post Mar 12 2017, 19:52:26
Post #4

дууумер!
**************
Group: Металариец
Posts: 2,712
Releases: 4
From: SPb
On Forums: 13 years 6 days
Thanks: 865 time(s)
Russian Federation


ЦИТАТА(aesteticvice @ Mar 12 2017, 21:24:11) *
а мне он чет совсем не понравился, с полгодика назад скачал-послушал-удалил, по моему как-то они потеряли в той пинкфлойдистости которая была им присуща, растеклись какой-то роковой водой, да он поживее и от этого потерял в атмосфере и психоделичности, по моему один трэк мне более-менее понравился и все (IMG:style_emoticons/default/6.gif) а банда была одной из любимейших

Гитары сочнейшие. Связка 3 и 4 песен сразу запала. Я первый вечер гоняю альбом, пропустил его выход (в декабре вроде).
Прошлый был скучноват, быстро надоел. Этот стал потяжелее, поживее.
Go to the top of the page
  Insert nick Quick quote
+Quote Post
post Apr 8 2018, 19:33:54
Post #5

hearer & reader
**************
Group: Металариец
Posts: 8,503
Releases: 130
From: Moscow
On Forums: 12 years 6 months
Thanks: 8347 time(s)
Russian Federation


Go to the top of the page
  Insert nick Quick quote
+Quote Post

Reply to this topicStart new topic
2 User(s) are reading this topic (2 Guests and 0 Anonymous Users)
0 Members:

 



- Lo-Fi Version Support form
Copyrights and abuse reports form
Time is now: 31st March 2020 - 16:39:52