Welcome Guest ( Log In | Register )

> Extravaganza - Priepuoliai (2016), Depressive Post-Black Metal
post Mar 17 2017, 07:35:39
Post #1

Аннигилятор пивА
Group Icon
Group: V.I.P
Posts: 46,692
Releases: 14016
From: Koenigsberg - TILZIT
On Forums: 11 years 11 months
Thanks: 310873 time(s)
Russian Federation


(IMG:https://metalarea.org/images/audiocovers/2017_Mar/acov_tid285444_thumb.jpg)

*Artist: Extravaganza
*Album: Priepuoliai
*Year: 2016
*Genre: Depressive Post-Black Metal
*Country: Lithuania (IMG:https://metalarea.org/forum/style_images/flags/Lithuania.png)
*Format: mp3@CBR320kbps
*Size: 148MB

Tracklist:
01. Susitiksim Tenais 08:29
02. Ji Tikėjo 05:43
03. Jaustis Gabiam 05:55
04. Jokios Vilties 13:05
05. Aš Esu 04:09
06. Artyn Žibintų Mano Dangus 11:40
07. Mano Klaidos Rytoj Ryte 09:11
08. Apsispręsti 12:03
******************************
Total playing time: 1:10:15




Extended info
Mantas Vaškelis - Guitar
Tomas Valentinaitis - Vocals, Guitar (ex-Amžius)
Algirdas Šapoka - Drums
Kamil Urbanowicz - Bass (Sisyphean, ex-Division)





Technical info
(IMG:https://metalarea.org/images/spectrogram/2017_Mar/d1a4d419b4ef74d8018f8e736a6272f4.png)
Input File: 02-extravaganza-ji_tikejo-7eac6ef2.mp3
Channels : 2
Sample Rate : 44100
Precision : 16-bit
Duration : 00:05:43.23 = 15136531 samples = 25742.4 CDDA sectors
File Size : 13.7M
Bit Rate : 320k
Sample Encoding: MPEG audio (layer I, II or III)
Comments :
Title=Ji Tikejo
Artist=Extravaganza
Album=Priepuoliai
Tracknumber=2/8
Year=2017
Genre=138



Register


Вернуться к началу страницы
  Insert nick Quick quote
+Цитировать сообщение
 
Создать новую тему
Replies (1 - 4)
post Mar 18 2017, 08:19:20
Post #2

Три Литра
***
Group: Завсегдатай
Posts: 286
Releases: 5
From: Самара
On Forums: 9 years 8 months
Thanks: 272 time(s)
Russian Federation


не заморачивались с облогой
Вернуться к началу страницы
  Insert nick Quick quote
+Цитировать сообщение
post Mar 18 2017, 09:12:38
Post #3

Flowers Of The Underworld
**************
Group: Металариец
Posts: 5,181
Releases: 0
On Forums: 8 years 6 months
Thanks: 2174 time(s)
Unknown


ЦИТАТА(Dantalian @ Mar 18 2017, 10:19:20) *
не заморачивались с облогой

ну по сравнению с этими тут ещё выдумка есть.
Вернуться к началу страницы
  Insert nick Quick quote
+Цитировать сообщение
post Mar 18 2017, 09:30:12
Post #4

Правь статус, ####!111
**************
Group: Металариец
Posts: 2,928
Releases: 0
From: Москва
On Forums: 10 years 3 months
Thanks: 375 time(s)
Russian Federation


А можно другие файлообменники ?
Вернуться к началу страницы
  Insert nick Quick quote
+Цитировать сообщение
post May 16 2018, 23:26:50
Post #5

Литр
*
Group: Подсевший
Posts: 71
Releases: 0
From: Санкт-Петербург
On Forums: 9 years 3 months
Thanks: 16 time(s)
Russian Federation


Выложите кто-нибудь!
Вернуться к началу страницы
  Insert nick Quick quote
+Цитировать сообщение

ОтветитьСоздать новую тему
1 User(s) are reading this topic (1 Guests and 0 Anonymous Users)
0 Members:

 



- Lo-Fi Version Support form
Copyrights and abuse reports form
Time is now: 24th May 2018 - 12:46:55